找回密码

蓝光电影网

查看: 16|回复: 0

[恐怖] 天使陨落 Angels.Fallen.2020.1080p.BluRay.x264.DTS-FGT 7.88GB

[复制链接]
蓝光币
382
发表于 2020-11-24 09:15:11 | 显示全部楼层 |阅读模式


◎译  名 天使殒落
◎片  名 Angels Fallen
◎年  代 2020
◎产  地 美国
◎类  别 可骇
◎语  言 英语
◎上映日期 2020-01-14(美国)
◎IMDb评分  4.1/10 from 892 users
◎IMDb链接  https://www.imdb.com/title/tt5759590/
◎豆瓣评分 /10 from 0 users
◎豆瓣链接 https://movie.douban.com/subject/34918913/
◎主  演 妮古拉·柏森娜 Nicola Posener
       迈克尔·马德森 Michael Madsen
       休斯顿·瑞恩斯 Houston Rhines
       Vinny DeGennaro
       海莉·赫尔米达 Hailey Hermida
       李·霍拉法伊 Lee Kholafai
       汤米·纳什 Tommy Nash
       William Legue
◎标  签 美国 | 美国电影 | 科幻 | 惊悚 | 奇异魔幻 | 奇异 | 行动活动 | 2020
◎简  介


  在他的妻子与黑暗势力的战役中不幸牺牲后,加布里埃尔被压服重新加入他之前的恶魔猎人团队,从美国相对不为人知的地方观光到欧洲的未知深处。他与他冷淡的最好的朋友迈克尔一路,他有一个黑暗的奥秘,奥秘的汉娜的愿景猜测未来,和一群五花八门的恶魔杀手。在落空了他的一部分团队后,加布里埃尔必须面临他悲凉的曩昔,并决议谁是实在的朋友或仇敌。
  1. Video
  2. ID                                       : 1
  3. Format                                   : AVC
  4. Format/Info                              : Advanced Video Codec
  5. Format profile                           : [email protected]
  6. Format settings                          : CABAC / 4 Ref Frames
  7. Format settings, CABAC                   : Yes
  8. Format settings, Reference frames        : 4 frames
  9. Codec ID                                 : V_MPEG4/ISO/AVC
  10. Duration                                 : 1 h 26 min
  11. Bit rate                                 : 11.5 Mb/s
  12. Width                                    : 1 920 pixels
  13. Height                                   : 1 080 pixels
  14. Display aspect ratio                     : 16:9
  15. Frame rate mode                          : Constant
  16. Frame rate                               : 23.976 (24000/1001/189150) FPS
  17. Color space                              : YUV
  18. Chroma subsampling                       : 4:2:0
  19. Bit depth                                : 8 bits
  20. Scan type                                : Progressive
  21. Bits/(Pixel*Frame)                       : 0.231
  22. Stream size                              : 6.96 GiB (88%)
  23. Title                                    : Angels.Fallen.2020.1080p.BluRay.x264.DTS-FGT
  24. Writing library                          : x264 core 148 r2795M aaa9aa8
  25. Encoding settings                        : cabac=1 / ref=4 / deblock=1:-2:-2 / analyse=0x3:0x113 / me=umh / subme=9 / psy=1 / psy_rd=1.00:0.15 / mixed_ref=1 / me_range=16 / chroma_me=1 / trellis=2 / 8x8dct=1 / cqm=0 / deadzone=21,11 / fast_pskip=1 / chroma_qp_offset=-3 / threads=24 / lookahead_threads=3 / sliced_threads=0 / nr=0 / decimate=1 / interlaced=0 / bluray_compat=0 / constrained_intra=0 / bframes=3 / b_pyramid=2 / b_adapt=1 / b_bias=0 / direct=3 / weightb=1 / open_gop=0 / weightp=2 / keyint=250 / keyint_min=25 / scenecut=40 / intra_refresh=0 / rc_lookahead=50 / rc=2pass / mbtree=1 / bitrate=11500 / ratetol=1.0 / qcomp=0.60 / qpmin=0 / qpmax=69 / qpstep=4 / cplxblur=20.0 / qblur=0.5 / vbv_maxrate=31250 / vbv_bufsize=31250 / nal_hrd=none / filler=0 / ip_ratio=1.40 / aq=1:1.00
  26. Language                                 : English
  27. Default                                  : Yes
  28. Forced                                   : No
  29. Audio
  30. ID                                       : 2
  31. Format                                   : DTS
  32. Format/Info                              : Digital Theater Systems
  33. Codec ID                                 : A_DTS
  34. Duration                                 : 1 h 26 min
  35. Bit rate mode                            : Constant
  36. Bit rate                                 : 1 509 kb/s
  37. Channel(s)                               : 6 channels
  38. Channel layout                           : C L R Ls Rs LFE
  39. Sampling rate                            : 48.0 kHz
  40. Frame rate                               : 93.750 FPS (512 SPF)
  41. Bit depth                                : 16 bits
  42. Compression mode                         : Lossy
  43. Stream size                              : 935 MiB (12%)
  44. Title                                    : Angels.Fallen.2020.1080p.BluRay.x264.DTS-FGT
  45. Language                                 : English
  46. Default                                  : Yes
  47. Forced                                   : No
  48. Text
  49. ID                                       : 3
  50. Format                                   : UTF-8
  51. Codec ID                                 : S_TEXT/UTF8
  52. Codec ID/Info                            : UTF-8 Plain Text
  53. Duration                                 : 1 h 24 min
  54. Bit rate                                 : 42 b/s
  55. Count of elements                        : 1160
  56. Stream size                              : 26.0 KiB (0%)
  57. Language                                 : English
  58. Default                                  : Yes
  59. Forced                                   : No
  60. Menu
  61. 00:00:00.000                             : en:Chapter 01
  62. 00:10:43.100                             : en:Chapter 02
  63. 00:20:38.403                             : en:Chapter 03
  64. 00:30:08.848                             : en:Chapter 04
  65. 00:41:25.774                             : en:Chapter 05
  66. 01:00:51.314                             : en:Chapter 06
  67. 01:10:19.131                             : en:Chapter 07
  68. 01:17:48.413                             : en:Chapter 08
复制代码






                                       
                                       

                                       
                                       
                                       




回复

使用道具 举报

懒得打字嘛,点击右侧快捷回复 【右侧内容,后台自定义】
您需要登录后才可以回帖 登录 | 立即加入

本版积分规则

Archiver|小黑屋| 蓝光电影网 |网站地图

Copyright © 2021 Comsenz Inc. Powered by 蓝光电影网

蓝光电影网

本站内容由用户自主分享和转载自互联网,转载目的在于传递更多信息,并不代表本网赞同其观点和对其真实性负责。

如有侵权、违反国家法律政策行为,请联系我们,我们会第一时间及时清除和处理!

举报反馈邮箱:[email protected]

快速回复 返回顶部 返回列表