找回密码

蓝光电影网

查看: 25|回复: 0

[惊悚] 骨肉/恶魔之子 Son.2021.720p.BluRay.x264.DTS-MT 3.91GB

[复制链接]
蓝光币
511
发表于 2021-5-19 18:13:14 | 显示全部楼层 |阅读模式
[img][/img]

◎译  名 骨血/恶魔之子/爱子
◎片  名 Son
◎年  代 2021
◎产  地 爱尔兰
◎类  别 惊悚 / 可骇
◎语  言 英语
◎上映日期 2021-02-26(加拿大)
◎豆瓣评分 5.4/10 from 256 users
◎豆瓣链接 https://movie.douban.com/subject/30301194/
◎片  长 98分钟
◎导  演 伊万·卡瓦纳 Ivan Kavanagh
◎编  剧 伊万·卡瓦纳 Ivan Kavanagh
◎主  演 埃米尔·赫斯基 Emile Hirsch
       安迪·马蒂切克 Andi Matichak
       卢克·大卫·布鲁姆 Luke David Blumm
       罗科·西斯托 Rocco Sisto
       瓦妮塔·沃姆斯利 Wanetah Walmsley
       克兰斯顿·约翰逊 Cranston Johnson
       艾琳·布拉德利·丹格 Erin Bradley Dangar
       Blaine Maye
       亚当·亨斯利 Adam Henslee
◎标  签 可骇 | 爱尔兰 | 惊悚 | 2021 | 邪教 | 电影 | 美国电影 | 爱尔兰电影
◎简  介


  安迪·马蒂切克([月光光心慌慌])、埃米尔·赫斯基([荒原保存])将主演可骇片[儿子](Son,暂译),伊万·卡瓦纳([永生之地])自编自导。影片报告一位母亲在她儿时曾逃走邪教构造。而她成为母亲以后,邪教构造的成员让她的孩子传染上了一种可怕的疾病,这类疾病的治愈方式比她设想中的更可怕。该片将于2020年1月在美国开拍。
  1. Video
  2. ID                                       : 1
  3. Format                                   : AVC
  4. Format/Info                              : Advanced Video Codec
  5. Format profile                           : [email protected]
  6. Format settings                          : CABAC / 12 Ref Frames
  7. Format settings, CABAC                   : Yes
  8. Format settings, Reference frames        : 12 frames
  9. Codec ID                                 : V_MPEG4/ISO/AVC
  10. Duration                                 : 1 h 38 min
  11. Bit rate                                 : 4 196 kb/s
  12. Width                                    : 1 280 pixels
  13. Height                                   : 536 pixels
  14. Display aspect ratio                     : 2.40:1
  15. Frame rate mode                          : Constant
  16. Frame rate                               : 23.976 (24000/1001/189150) FPS
  17. Color space                              : YUV
  18. Chroma subsampling                       : 4:2:0
  19. Bit depth                                : 8 bits
  20. Scan type                                : Progressive
  21. Bits/(Pixel*Frame)                       : 0.255
  22. Stream size                              : 2.88 GiB (74%)
  23. Writing library                          : x264 core 157 r2938 2b00a84 [email protected] Mod
  24. Encoding settings                        : cabac=1 / ref=12 / deblock=1:-3:-3 / analyse=0x3:0x133 / me=umh / subme=10 / psy=1 / psy_rd=1.05:0.00 / mixed_ref=1 / me_range=32 / chroma_me=1 / trellis=2 / 8x8dct=1 / cqm=0 / deadzone=21,11 / fast_pskip=0 / chroma_qp_offset=-2 / threads=12 / lookahead_threads=2 / sliced_threads=0 / nr=0 / decimate=0 / interlaced=0 / bluray_compat=0 / constrained_intra=0 / bframes=8 / b_pyramid=2 / b_adapt=2 / b_bias=0 / direct=3 / weightb=1 / open_gop=0 / weightp=2 / keyint=250 / keyint_min=24 / scenecut=40 / intra_refresh=0 / rc_lookahead=250 / rc=crf / mbtree=0 / crf=16.8 / qcomp=0.60 / qpmin=0 / qpmax=69 / qpstep=4 / vbv_maxrate=62500 / vbv_bufsize=78125 / crf_max=0.0 / nal_hrd=none / filler=0 / ip_ratio=1.30 / pb_ratio=1.20 / aq=3:0.80
  25. Language                                 : English
  26. Default                                  : Yes
  27. Forced                                   : No
  28. Color range                              : Limited
  29. Color primaries                          : BT.709
  30. Matrix coefficients                      : BT.709
  31. Audio
  32. ID                                       : 2
  33. Format                                   : DTS
  34. Format/Info                              : Digital Theater Systems
  35. Codec ID                                 : A_DTS
  36. Duration                                 : 1 h 38 min
  37. Bit rate mode                            : Constant
  38. Bit rate                                 : 1 509 kb/s
  39. Channel(s)                               : 6 channels
  40. Channel layout                           : C L R Ls Rs LFE
  41. Sampling rate                            : 48.0 kHz
  42. Frame rate                               : 93.750 FPS (512 SPF)
  43. Bit depth                                : 16 bits
  44. Compression mode                         : Lossy
  45. Stream size                              : 1.03 GiB (26%)
  46. Language                                 : English
  47. Default                                  : Yes
  48. Forced                                   : No
  49. Text
  50. ID                                       : 3
  51. Format                                   : UTF-8
  52. Codec ID                                 : S_TEXT/UTF8
  53. Codec ID/Info                            : UTF-8 Plain Text
  54. Duration                                 : 1 h 35 min
  55. Bit rate                                 : 48 b/s
  56. Count of elements                        : 1408
  57. Stream size                              : 33.9 KiB (0%)
  58. Title                                    : SRT
  59. Language                                 : English
  60. Default                                  : Yes
  61. Forced                                   : No
  62. Menu
  63. 00:00:00.000                             : Chapter 01
  64. 00:11:29.772                             : Chapter 02
  65. 00:22:49.827                             : Chapter 03
  66. 00:33:20.040                             : Chapter 04
  67. 00:43:45.623                             : Chapter 05
  68. 00:53:43.554                             : Chapter 06
  69. 01:06:01.541                             : Chapter 07
  70. 01:17:04.912                             : Chapter 08
  71. 01:27:08.974                             : Chapter 09
复制代码




                                       
                                       

                                       
                                       
                                       




回复

使用道具 举报

懒得打字嘛,点击右侧快捷回复 【右侧内容,后台自定义】
您需要登录后才可以回帖 登录 | 立即加入

本版积分规则

Archiver|小黑屋| 蓝光电影网 |网站地图

Copyright © 2021 Comsenz Inc. Powered by 蓝光电影网

蓝光电影网

本站内容由用户自主分享和转载自互联网,转载目的在于传递更多信息,并不代表本网赞同其观点和对其真实性负责。

如有侵权、违反国家法律政策行为,请联系我们,我们会第一时间及时清除和处理!

举报反馈邮箱:[email protected]

快速回复 返回顶部 返回列表