找回密码

蓝光电影网

查看: 16|回复: 0

[动作] 黑钱飞机 Money.Plane.2020.720p.BluRay.x264-WoAT 3.16GB

[复制链接]
蓝光币
426
发表于 2020-11-5 17:13:22 | 显示全部楼层 |阅读模式


◎译  名 陋规飞机
◎片  名 Money Plane
◎年  代 2020
◎产  地 美国
◎类  别 行动
◎语  言 英语
◎上映日期 2020-07-10(美国)
◎IMDb评分  4.6/10 from 1670 users
◎IMDb链接  https://www.imdb.com/title/tt7286966/
◎豆瓣评分 /10 from 0 users
◎豆瓣链接 https://movie.douban.com/subject/34938534/
◎导  演 安德鲁·劳伦斯 Andrew Lawrence
◎编  剧 安德鲁·劳伦斯 Andrew Lawrence / 泰勒·科尼 Tyler W. Konney
◎主  演 丹妮丝·理查兹 Denise Richards
       托马斯·简 Thomas Jane
       马修·劳伦斯 Matthew Lawrence
       约瑟夫·劳伦斯 Joseph Lawrence
       安德鲁·劳伦斯 Andrew Lawrence
       艾吉 Adam Copeland
       阿尔·萨皮恩扎 Al Sapienza
       凯尔希·格兰莫 Kelsey Grammer
◎标  签 美国电影 | 行动 | 2020 | 电影 | 音 | kels | [歐美]
◎简  介


  A professional thief with $40 million in debt and his family's life on the line must commit one final heist - rob a futuristic airborne casino filled with the world's most dangerous criminals.
  1. Video
  2. ID                                       : 1
  3. Format                                   : AVC
  4. Format/Info                              : Advanced Video Codec
  5. Format profile                           : [email protected]
  6. Format settings                          : CABAC / 8 Ref Frames
  7. Format settings, CABAC                   : Yes
  8. Format settings, Reference frames        : 8 frames
  9. Codec ID                                 : V_MPEG4/ISO/AVC
  10. Duration                                 : 1 h 22 min
  11. Bit rate                                 : 4 868 kb/s
  12. Width                                    : 1 280 pixels
  13. Height                                   : 720 pixels
  14. Display aspect ratio                     : 16:9
  15. Frame rate mode                          : Constant
  16. Frame rate                               : 23.976 (24000/1001/189150) FPS
  17. Color space                              : YUV
  18. Chroma subsampling                       : 4:2:0
  19. Bit depth                                : 8 bits
  20. Scan type                                : Progressive
  21. Bits/(Pixel*Frame)                       : 0.220
  22. Stream size                              : 2.79 GiB (88%)
  23. Writing library                          : x264 core 161 r3027 4121277
  24. Encoding settings                        : cabac=1 / ref=8 / deblock=1:-3:-3 / analyse=0x3:0x133 / me=umh / subme=9 / psy=1 / psy_rd=1.00:0.00 / mixed_ref=1 / me_range=32 / chroma_me=1 / trellis=2 / 8x8dct=1 / cqm=0 / deadzone=21,11 / fast_pskip=0 / chroma_qp_offset=-2 / threads=22 / lookahead_threads=3 / sliced_threads=0 / nr=0 / decimate=0 / interlaced=0 / bluray_compat=0 / constrained_intra=0 / bframes=9 / b_pyramid=2 / b_adapt=2 / b_bias=0 / direct=3 / weightb=1 / open_gop=0 / weightp=2 / keyint=250 / keyint_min=23 / scenecut=40 / intra_refresh=0 / rc=crf / mbtree=0 / crf=17.0 / qcomp=0.60 / qpmin=0 / qpmax=69 / qpstep=4 / ip_ratio=1.40 / pb_ratio=1.30 / aq=3:0.88
  25. Default                                  : Yes
  26. Forced                                   : No
  27. Color range                              : Limited
  28. Matrix coefficients                      : BT.709

  29. Audio
  30. ID                                       : 2
  31. Format                                   : AC-3
  32. Format/Info                              : Audio Coding 3
  33. Commercial name                          : Dolby Digital
  34. Codec ID                                 : A_AC3
  35. Duration                                 : 1 h 22 min
  36. Bit rate mode                            : Constant
  37. Bit rate                                 : 640 kb/s
  38. Channel(s)                               : 6 channels
  39. Channel layout                           : L R C LFE Ls Rs
  40. Sampling rate                            : 48.0 kHz
  41. Frame rate                               : 31.250 FPS (1536 SPF)
  42. Compression mode                         : Lossy
  43. Stream size                              : 376 MiB (12%)
  44. Title                                    : English
  45. Language                                 : English
  46. Service kind                             : Complete Main
  47. Default                                  : No
  48. Forced                                   : No

  49. Text
  50. ID                                       : 3
  51. Format                                   : PGS
  52. Muxing mode                              : zlib
  53. Codec ID                                 : S_HDMV/PGS
  54. Codec ID/Info                            : Picture based subtitle format used on BDs/HD-DVDs
  55. Duration                                 : 1 h 21 min
  56. Bit rate                                 : 25.9 kb/s
  57. Count of elements                        : 1324
  58. Stream size                              : 15.0 MiB (0%)
  59. Title                                    : Dutch
  60. Language                                 : Dutch
  61. Default                                  : No
  62. Forced                                   : No

  63. Menu
  64. 00:00:00.000                             : en:Chapter 01
  65. 00:10:58.992                             : en:Chapter 02
  66. 00:24:30.219                             : en:Chapter 03
  67. 00:33:35.555                             : en:Chapter 04
  68. 00:43:34.070                             : en:Chapter 05
  69. 00:57:17.809                             : en:Chapter 06
  70. 01:09:03.723                             : en:Chapter 07
  71. 01:19:39.775                             : en:Chapter 08
复制代码




                                       
                                       

                                       
                                       
                                       




回复

使用道具 举报

懒得打字嘛,点击右侧快捷回复 【右侧内容,后台自定义】
您需要登录后才可以回帖 登录 | 立即加入

本版积分规则

Archiver|小黑屋| 蓝光电影网 |网站地图

Copyright © 2021 Comsenz Inc. Powered by 蓝光电影网

蓝光电影网

本站内容由用户自主分享和转载自互联网,转载目的在于传递更多信息,并不代表本网赞同其观点和对其真实性负责。

如有侵权、违反国家法律政策行为,请联系我们,我们会第一时间及时清除和处理!

举报反馈邮箱:[email protected]

快速回复 返回顶部 返回列表