找回密码

蓝光电影网

查看: 9|回复: 0

[动作] 十万火急/龙出生天 Daylight.1996.REMASTERED.1080p.BluRay.x264.DTS-HD.MA.7.1-FGT 12.35GB

[复制链接]
蓝光币
382
发表于 2021-5-13 12:14:14 | 显示全部楼层 |阅读模式


◎译  名 十万急切/龙诞生天
◎片  名 Daylight
◎年  代 1996
◎产  地 美国
◎类  别 行动 / 冒险 / 灾难
◎语  言 英语
◎上映日期 1996-12-06
◎IMDb评分  5.9/10 from 67901 users
◎IMDb链接  https://www.imdb.com/title/tt0116040/
◎豆瓣评分 7.3/10 from 5314 users
◎豆瓣链接 https://movie.douban.com/subject/1292834/
◎片  长 114分钟
◎导  演 罗伯·科恩 Rob Cohen
◎编  剧 莱斯利·博希姆 Leslie Bohem
◎主  演 西尔维斯特·史泰龙 Sylvester Stallone
       艾米·布伦尼曼 Amy Brenneman
       维果·莫腾森 Viggo Mortensen
       丹·哈达亚 Dan Hedaya
       杰伊·桑德斯 Jay O. Sanders
       凯伦·杨 Karen Young
       克莱尔·布鲁姆 Claire Bloom
       瓦妮莎·贝尔·卡洛威 Vanessa Bell Calloway
       雷诺里·圣地亚哥 Renoly Santiago
       科林·福克斯 Colin Fox
       丹妮尔·哈丽丝 Danielle Harris
       Trina McGee
       塞奇·史泰龙 Sage Stallone
       乔·安德森 Jo Anderson
       马克·罗斯顿 Mark Rolston
       罗丝玛丽·福赛思 Rosemary Forsyth
       王洛勇 Luoyong Wang
       巴瑞·纽曼 Barry Newman
       斯坦·肖 Stan Shaw
       Mark Chadwick
       李·奥克斯 Lee Oakes
       沙基纳·贾弗里 Sakina Jaffrey
       艾伯特·麦克林 Albert Macklin
       约瑟夫·劳格诺 Joseph Ragno
       内斯特·塞拉诺 Nestor Serrano
       约翰·利斯 John Lees
       Stephen James
       伊西斯·马森登 Isis Mussenden
       罗伯·科恩 Rob Cohen
       帕梅拉·佩林 Pamela Perrine
       Dale Resteghini
◎标  签 灾难 | 美国 | 史泰龙 | 行动 | 1996 | 美国电影 | 十万急切 | 冒险
◎简  介


  此日无数来往于曼哈顿与新泽西州的海底地道的美国公众像平常一样在地道内埋怨着交通梗塞,岂料死神正在步步逼近。地道内一辆装满化学物品的卡车意外发生了爆炸,强大的冲击力使得地道坍塌了,收支口都被堵死了。此时,地道内一片火海,满盈着有毒烟雾,河水也在不竭涌进,无数无辜的市民们能做似乎只要等死。
  
  救济队实在早到了,但是地道被封,里面的有毒烟雾肆虐,救济职员迟迟不敢贸然脱手。十万急切之际,出租车司机、前救济队队员骆查(西尔维斯特?史泰龙 Sylvester Stallone 饰)自告奋勇了。他从透风口爬进了地道,他稳定住了地道内众人的情感,率领大师起头了生死流亡。
◎获奖情况
  第69届奥斯卡金像奖 ?(1997)
  最好音效剪辑(提名) 理查德·路易斯·安德森?/?大卫·A·惠特克
  1. Video
  2. ID                                       : 1
  3. Format                                   : AVC
  4. Format/Info                              : Advanced Video Codec
  5. Format profile                           : [email protected]
  6. Format settings                          : CABAC / 4 Ref Frames
  7. Format settings, CABAC                   : Yes
  8. Format settings, Reference frames        : 4 frames
  9. Codec ID                                 : V_MPEG4/ISO/AVC
  10. Duration                                 : 1 h 54 min
  11. Bit rate                                 : 11.5 Mb/s
  12. Width                                    : 1 920 pixels
  13. Height                                   : 1 040 pixels
  14. Display aspect ratio                     : 1.85:1
  15. Frame rate mode                          : Constant
  16. Frame rate                               : 23.976 (24000/1001/189150) FPS
  17. Color space                              : YUV
  18. Chroma subsampling                       : 4:2:0
  19. Bit depth                                : 8 bits
  20. Scan type                                : Progressive
  21. Bits/(Pixel*Frame)                       : 0.240
  22. Stream size                              : 9.19 GiB (74%)
  23. Writing library                          : x264 core 148 r2748 97eaef2
  24. Encoding settings                        : cabac=1 / ref=4 / deblock=1:-2:-2 / analyse=0x3:0x113 / me=umh / subme=9 / psy=1 / psy_rd=1.00:0.15 / mixed_ref=1 / me_range=16 / chroma_me=1 / trellis=2 / 8x8dct=1 / cqm=0 / deadzone=21,11 / fast_pskip=1 / chroma_qp_offset=-3 / threads=72 / lookahead_threads=3 / sliced_threads=0 / nr=0 / decimate=1 / interlaced=0 / bluray_compat=0 / constrained_intra=0 / bframes=3 / b_pyramid=2 / b_adapt=1 / b_bias=0 / direct=3 / weightb=1 / open_gop=0 / weightp=2 / keyint=250 / keyint_min=25 / scenecut=40 / intra_refresh=0 / rc_lookahead=50 / rc=2pass / mbtree=1 / bitrate=11500 / ratetol=1.0 / qcomp=0.60 / qpmin=0 / qpmax=69 / qpstep=4 / cplxblur=20.0 / qblur=0.5 / vbv_maxrate=31250 / vbv_bufsize=31250 / nal_hrd=none / filler=0 / ip_ratio=1.40 / aq=1:1.00
  25. Language                                 : English
  26. Default                                  : Yes
  27. Forced                                   : No
  28. Audio
  29. ID                                       : 2
  30. Format                                   : DTS XLL
  31. Format/Info                              : Digital Theater Systems
  32. Commercial name                          : DTS-HD Master Audio
  33. Codec ID                                 : A_DTS
  34. Duration                                 : 1 h 55 min
  35. Bit rate mode                            : Variable
  36. Bit rate                                 : 3 869 kb/s
  37. Channel(s)                               : 8 channels
  38. Channel layout                           : C L R LFE Lb Rb Lss Rss
  39. Sampling rate                            : 48.0 kHz
  40. Frame rate                               : 93.750 FPS (512 SPF)
  41. Bit depth                                : 24 bits
  42. Compression mode                         : Lossless
  43. Stream size                              : 3.13 GiB (25%)
  44. Title                                    : DTS-HD MA 7.1
  45. Language                                 : English
  46. Default                                  : No
  47. Forced                                   : No
  48. Text #1
  49. ID                                       : 3
  50. Format                                   : UTF-8
  51. Codec ID                                 : S_TEXT/UTF8
  52. Codec ID/Info                            : UTF-8 Plain Text
  53. Duration                                 : 1 h 46 min
  54. Bit rate                                 : 57 b/s
  55. Count of elements                        : 1220
  56. Stream size                              : 44.7 KiB (0%)
  57. Title                                    : English-SRT
  58. Language                                 : English
  59. Default                                  : Yes
  60. Forced                                   : No
  61. Text #2
  62. ID                                       : 4
  63. ID in the original source medium         : 4610 (0x1202)
  64. Format                                   : PGS
  65. Muxing mode                              : zlib
  66. Codec ID                                 : S_HDMV/PGS
  67. Codec ID/Info                            : Picture based subtitle format used on BDs/HD-DVDs
  68. Duration                                 : 1 h 46 min
  69. Bit rate                                 : 36.8 kb/s
  70. Count of elements                        : 2426
  71. Stream size                              : 28.1 MiB (0%)
  72. Title                                    : English-PGS
  73. Language                                 : English
  74. Default                                  : No
  75. Forced                                   : No
  76. Original source medium                   : Blu-ray
  77. Text #3
  78. ID                                       : 5
  79. ID in the original source medium         : 4611 (0x1203)
  80. Format                                   : PGS
  81. Muxing mode                              : zlib
  82. Codec ID                                 : S_HDMV/PGS
  83. Codec ID/Info                            : Picture based subtitle format used on BDs/HD-DVDs
  84. Duration                                 : 1 h 51 min
  85. Bit rate                                 : 38.4 kb/s
  86. Count of elements                        : 2670
  87. Stream size                              : 30.7 MiB (0%)
  88. Title                                    : English-PGS
  89. Language                                 : English
  90. Default                                  : No
  91. Forced                                   : No
  92. Original source medium                   : Blu-ray
  93. Text #4
  94. ID                                       : 6
  95. ID in the original source medium         : 4613 (0x1205)
  96. Format                                   : PGS
  97. Muxing mode                              : zlib
  98. Codec ID                                 : S_HDMV/PGS
  99. Codec ID/Info                            : Picture based subtitle format used on BDs/HD-DVDs
  100. Duration                                 : 1 h 54 min
  101. Bit rate                                 : 60.2 kb/s
  102. Count of elements                        : 3150
  103. Stream size                              : 49.2 MiB (0%)
  104. Title                                    : English-PGS
  105. Language                                 : English
  106. Default                                  : No
  107. Forced                                   : No
  108. Original source medium                   : Blu-ray
  109. Menu
  110. 00:00:00.000                             : Chapter 01
  111. 00:04:26.933                             : Chapter 02
  112. 00:06:52.120                             : Chapter 03
  113. 00:10:29.670                             : Chapter 04
  114. 00:14:34.290                             : Chapter 05
  115. 00:16:57.433                             : Chapter 06
  116. 00:21:38.505                             : Chapter 07
  117. 00:24:15.954                             : Chapter 08
  118. 00:27:34.569                             : Chapter 09
  119. 00:34:10.923                             : Chapter 10
  120. 00:40:00.773                             : Chapter 11
  121. 00:45:21.135                             : Chapter 12
  122. 00:50:40.704                             : Chapter 13
  123. 00:54:51.204                             : Chapter 14
  124. 01:01:12.835                             : Chapter 15
  125. 01:08:06.540                             : Chapter 16
  126. 01:13:17.851                             : Chapter 17
  127. 01:17:53.752                             : Chapter 18
  128. 01:22:24.064                             : Chapter 19
  129. 01:25:49.602                             : Chapter 20
  130. 01:30:55.992                             : Chapter 21
  131. 01:35:22.967                             : Chapter 22
  132. 01:38:16.974                             : Chapter 23
  133. 01:42:14.294                             : Chapter 24
  134. 01:48:33.798                             : Chapter 25
复制代码







                                       
                                       

                                       
                                       
                                       




回复

使用道具 举报

懒得打字嘛,点击右侧快捷回复 【右侧内容,后台自定义】
您需要登录后才可以回帖 登录 | 立即加入

本版积分规则

Archiver|小黑屋| 蓝光电影网 |网站地图

Copyright © 2021 Comsenz Inc. Powered by 蓝光电影网

蓝光电影网

本站内容由用户自主分享和转载自互联网,转载目的在于传递更多信息,并不代表本网赞同其观点和对其真实性负责。

如有侵权、违反国家法律政策行为,请联系我们,我们会第一时间及时清除和处理!

举报反馈邮箱:[email protected]

快速回复 返回顶部 返回列表