找回密码

蓝光电影网

查看: 19|回复: 0

[喜剧] 风流海盗/海盗 The.Pirate.1948.1080p.BluRay.x264.DTS-FGT 9.25GB

[复制链接]
蓝光币
515
发表于 2020-11-24 20:16:40 | 显示全部楼层 |阅读模式


◎译  名 风骚海盗/海盗/魔宫宝盒
◎片  名 The Pirate
◎年  代 1948
◎产  地 美国
◎类  别 笑剧 / 恋爱 / 歌舞 / 冒险
◎语  言 英语
◎上映日期 1948-06-11
◎IMDb评分  7/10 from 4321 users
◎IMDb链接  https://www.imdb.com/title/tt0040694/
◎豆瓣评分 6.7/10 from 160 users
◎豆瓣链接 https://movie.douban.com/subject/1305141/
◎片  长 102 分钟
◎导  演 文森特·明奈利 Vincente Minnelli
◎编  剧 塞缪尔·N·贝尔曼 S.N. Behrman / 艾伯特·哈克特 Albert Hackett / 弗朗西丝·古德里奇 Frances Goodrich / Joseph Than
◎主  演 朱迪·加兰 Judy Garland
       吉恩·凯利 Gene Kelly
       Fred Gilman
       Ben Lessy
       Paul Maxey
       Suzette Harbin
       Harold Nicholas
       Dick Simmons
       Cully Richards
       Dee Turnell
       Irene Vernon
       乔治·祖科 George Zucco
       O.Z. Whitehead
       雅德·尼古拉斯 Fayard Nicholas
       威廉·埃德蒙兹 William Edmunds
       莱斯特·艾伦 Lester Allen
       雷吉纳德·欧文 Reginald Owen
       玛丽·温莎 Marie Windsor
       格拉黛丝·库珀 Gladys Cooper
       沃尔特·斯勒扎克 Walter Slezak
       Jerry Bergen
       奥利弗布莱克 Oliver Blake
       Willa Pearl Curtis
       Peter Cusanelli
       惠顿·钱伯斯 Wheaton Chambers
       乔治·钱德勒 George Chandler
       布鲁斯·考林 Bruce Cowling
       Mary Jo Ellis
       Jean Dean
       洛拉·奥尔布赖特 Lola Albright
◎标  签 歌舞 | 美国 | GeneKelly | 1940s | 美国电影 | 文森特·明奈利 | 朱迪嘉兰 | 1948
◎简  介


  Young Manuela (Judy Garland) is pledged by her Aunt Inez (Gladys Cooper) to be married to the town mayor (Walter Slezak.) He's much older and "round as a pumpkin," but very rich, much to the delight of greedy Aunt Inez. In the meantime, Manuela dreams of being swept away by the infamous Macoco, "Mack the Black of the Caribbean Sea."
  
  Meanwhile, Serafin (Gene Kelly) and his troupe of traveling actors arrive in town to perform. Serafin meets Manuela and makes a romantic play for her, but she'll have nothing to do with the lowly actor. Later that night during the performance, Serafin hypnotises Manuela. While under his mesmerizing spell she reveals her Macoco fantasy to him and the audience.
  
  Serafin finds out that the mayor is actually Macoco, attempting to retire quietly with his lifetime's worth of plunder. Serafin tries to blackmail the mayor into giving up Manuela. Having no success with that, he announces to the villagers that he, Serafin, is Macoco. He threatens to burn down the town unless they give up Manuela to him in ten minutes' time. The townspeople plead with Manuela to sacrifice herself for the sake of the village. She grudgingly agrees to this "sacrifice," while actually being quite eager to run off with the man she thinks is Macoco. Then Manuela finds out that Serafin is just an actor, not really Macoco. A hilarious scene ensues in which she throws every vase in the room at him.
  
  ThemMayor, eager to have the impostor executed as Macoco, thereby ensuring a permanent new identity for himself and a beautiful new wife, arranges with the Viceroy for a trial and execution. Just before the execution, Serafin pleads for one last performance for the Viceroy. During the performance, Manuela discovers that the Mayor is the real Macoco, and she helps Serafin bait him into revealing himself as the real pirate.
  
  In the final scene, Manuela and Serafin perform "Be A Clown" in some new town, with the real Macoco presumably executed, and the two actors happily in love.
◎获奖情况
  第21届奥斯卡金像奖 ?(1949)
  歌舞片最好配乐(提名) 伦尼·海顿
  1. Video
  2. ID                                       : 1
  3. Format                                   : AVC
  4. Format/Info                              : Advanced Video Codec
  5. Format profile                           : [email protected]
  6. Format settings                          : CABAC / 4 Ref Frames
  7. Format settings, CABAC                   : Yes
  8. Format settings, Reference frames        : 4 frames
  9. Codec ID                                 : V_MPEG4/ISO/AVC
  10. Duration                                 : 1 h 41 min
  11. Bit rate                                 : 11.5 Mb/s
  12. Width                                    : 1 480 pixels
  13. Height                                   : 1 080 pixels
  14. Display aspect ratio                     : 1.370
  15. Frame rate mode                          : Constant
  16. Frame rate                               : 23.976 (24000/1001/189150) FPS
  17. Color space                              : YUV
  18. Chroma subsampling                       : 4:2:0
  19. Bit depth                                : 8 bits
  20. Scan type                                : Progressive
  21. Bits/(Pixel*Frame)                       : 0.300
  22. Stream size                              : 8.17 GiB (88%)
  23. Title                                    : The.Pirate.1948.1080p.BluRay.x264.DTS-FGT
  24. Writing library                          : x264 core 148 r2748 97eaef2
  25. Encoding settings                        : cabac=1 / ref=4 / deblock=1:-2:-2 / analyse=0x3:0x113 / me=umh / subme=9 / psy=1 / psy_rd=1.00:0.15 / mixed_ref=1 / me_range=16 / chroma_me=1 / trellis=2 / 8x8dct=1 / cqm=0 / deadzone=21,11 / fast_pskip=1 / chroma_qp_offset=-3 / threads=24 / lookahead_threads=3 / sliced_threads=0 / nr=0 / decimate=1 / interlaced=0 / bluray_compat=0 / constrained_intra=0 / bframes=3 / b_pyramid=2 / b_adapt=1 / b_bias=0 / direct=3 / weightb=1 / open_gop=0 / weightp=2 / keyint=250 / keyint_min=25 / scenecut=40 / intra_refresh=0 / rc_lookahead=50 / rc=2pass / mbtree=1 / bitrate=11500 / ratetol=1.0 / qcomp=0.60 / qpmin=0 / qpmax=69 / qpstep=4 / cplxblur=20.0 / qblur=0.5 / vbv_maxrate=31250 / vbv_bufsize=31250 / nal_hrd=none / filler=0 / ip_ratio=1.40 / aq=1:1.00
  26. Language                                 : English
  27. Default                                  : Yes
  28. Forced                                   : No
  29. Audio
  30. ID                                       : 2
  31. Format                                   : DTS
  32. Format/Info                              : Digital Theater Systems
  33. Codec ID                                 : A_DTS
  34. Duration                                 : 1 h 41 min
  35. Bit rate mode                            : Constant
  36. Bit rate                                 : 1 509 kb/s
  37. Channel(s)                               : 2 channels
  38. Channel layout                           : L R
  39. Sampling rate                            : 48.0 kHz
  40. Frame rate                               : 93.750 FPS (512 SPF)
  41. Bit depth                                : 16 bits
  42. Compression mode                         : Lossy
  43. Stream size                              : 1.07 GiB (12%)
  44. Title                                    : The.Pirate.1948.1080p.BluRay.x264.DTS-FGT
  45. Language                                 : English
  46. Default                                  : Yes
  47. Forced                                   : No
  48. Text
  49. ID                                       : 3
  50. Format                                   : UTF-8
  51. Codec ID                                 : S_TEXT/UTF8
  52. Codec ID/Info                            : UTF-8 Plain Text
  53. Duration                                 : 1 h 41 min
  54. Bit rate                                 : 69 b/s
  55. Count of elements                        : 1561
  56. Stream size                              : 51.4 KiB (0%)
  57. Language                                 : English
  58. Default                                  : Yes
  59. Forced                                   : No
  60. Menu
  61. 00:00:00.000                             : en:Chapter 01
  62. 00:01:53.697                             : en:Chapter 02
  63. 00:05:26.284                             : en:Chapter 03
  64. 00:10:39.848                             : en:Chapter 04
  65. 00:14:31.287                             : en:Chapter 05
  66. 00:17:21.707                             : en:Chapter 06
  67. 00:21:08.476                             : en:Chapter 07
  68. 00:26:09.067                             : en:Chapter 08
  69. 00:31:18.126                             : en:Chapter 09
  70. 00:35:06.146                             : en:Chapter 10
  71. 00:37:08.768                             : en:Chapter 11
  72. 00:40:14.537                             : en:Chapter 12
  73. 00:43:48.334                             : en:Chapter 13
  74. 00:49:42.730                             : en:Chapter 14
  75. 00:54:43.906                             : en:Chapter 15
  76. 01:00:34.506                             : en:Chapter 16
  77. 01:06:28.443                             : en:Chapter 17
  78. 01:11:30.536                             : en:Chapter 18
  79. 01:15:10.673                             : en:Chapter 19
  80. 01:17:10.167                             : en:Chapter 20
  81. 01:20:32.244                             : en:Chapter 21
  82. 01:27:44.718                             : en:Chapter 22
  83. 01:31:14.803                             : en:Chapter 23
  84. 01:35:09.913                             : en:Chapter 24
  85. 01:37:15.747                             : en:Chapter 25
  86. 01:38:46.587                             : en:Chapter 26
  87. 01:41:32.545                             : en:Chapter 27
复制代码






                                       
                                       

                                       
                                       
                                       




回复

使用道具 举报

懒得打字嘛,点击右侧快捷回复 【右侧内容,后台自定义】
您需要登录后才可以回帖 登录 | 立即加入

本版积分规则

Archiver|小黑屋| 蓝光电影网 |网站地图

Copyright © 2021 Comsenz Inc. Powered by 蓝光电影网

蓝光电影网

本站内容由用户自主分享和转载自互联网,转载目的在于传递更多信息,并不代表本网赞同其观点和对其真实性负责。

如有侵权、违反国家法律政策行为,请联系我们,我们会第一时间及时清除和处理!

举报反馈邮箱:[email protected]

快速回复 返回顶部 返回列表