找回密码

蓝光电影网

查看: 16|回复: 0

[剧情] 幼儿园教师/吾爱吾诗 The.Kindergarten.Teacher.2018.1080p.BluRay.REMUX.AVC.DTS-HD.MA.5.1-FGT 22.17GB

[复制链接]
蓝光币
515
发表于 2019-7-2 00:45:35 | 显示全部楼层 |阅读模式


◎译  名 幼儿园教师 / 吾爱吾诗(台) / 幼稚園老師(港)
◎片  名 The Kindergarten Teacher
◎年  代 2018
◎产  地 美国
◎类  别 剧情
◎语  言 英语
◎上映日期 2018-01-19(圣丹斯电影节) / 2018-10-12(美国)
◎IMDb评分  6.8/10 from 8362 users
◎IMDb链接  http://www.imdb.com/title/tt6952960
◎豆瓣评分 7.6/10 from 2528 users
◎豆瓣链接 https://movie.douban.com/subject/27059080/
◎片  长 96分钟
◎导  演 萨拉·科朗吉洛 Sara Colangelo
◎编  剧 萨拉·科朗吉洛 Sara Colangelo
◎主  演 玛吉·吉伦哈尔 Maggie Gyllenhaal
      盖尔·加西亚·贝纳尔 Gael García Bernal
      奥托·布兰克森-伍德 Ato Blankson-Wood
      利比亚·普格 Libya Pugh
      迈克尔·切鲁斯 Michael Chernus
      安娜·巴瑞辛尼科夫 Anna Baryshnikov
      罗莎·萨拉查 Rosa Salazar
      黛西·塔汉 Daisy Tahan
      萨马拉·查卡拉蒂 Samrat Chakrabarti
      阿杰·奈杜 Ajay Naidu

◎标  签 美国 | 教育 | 剧情 | 2018 | 儿童 | 人性 | 圣丹斯电影节 | 自力
◎简  介  
  一个幼儿园教员发现她班上有一个5岁的潜伏天赋,她迷上了这个孩子,为了培育他的天赋,她在危险而失望的门路上盘旋而下。
  1. Video
  2. ID                                       : 1
  3. Format                                   : AVC
  4. Format/Info                              : Advanced Video Codec
  5. Format profile                           : [email protected]
  6. Format settings                          : CABAC / 4 Ref Frames
  7. Format settings, CABAC                   : Yes
  8. Format settings, ReFrames                : 4 frames
  9. Codec ID                                 : V_MPEG4/ISO/AVC
  10. Duration                                 : 1 h 37 min
  11. Bit rate mode                            : Variable
  12. Bit rate                                 : 27.5 Mb/s
  13. Maximum bit rate                         : 35.0 Mb/s
  14. Width                                    : 1 920 pixels
  15. Height                                   : 1 080 pixels
  16. Display aspect ratio                     : 16:9
  17. Frame rate mode                          : Constant
  18. Frame rate                               : 24.000 FPS
  19. Color space                              : YUV
  20. Chroma subsampling                       : 4:2:0
  21. Bit depth                                : 8 bits
  22. Scan type                                : Progressive
  23. Bits/(Pixel*Frame)                       : 0.552
  24. Stream size                              : 18.6 GiB (84%)
  25. Title                                    : The.Kindergarten.Teacher.2018.1080p.BluRay.REMUX.AVC.DTS-HD.MA.5.1-FGT
  26. Language                                 : English
  27. Default                                  : No
  28. Forced                                   : No
  29. Audio #1
  30. ID                                       : 2
  31. Format                                   : DTS XLL
  32. Format/Info                              : Digital Theater Systems
  33. Commercial name                          : DTS-HD Master Audio
  34. Codec ID                                 : A_DTS
  35. Duration                                 : 1 h 37 min
  36. Bit rate mode                            : Variable
  37. Bit rate                                 : 2 908 kb/s
  38. Channel(s)                               : 6 channels
  39. Channel layout                           : C L R Ls Rs LFE
  40. Sampling rate                            : 48.0 kHz
  41. Frame rate                               : 93.750 FPS (512 SPF)
  42. Bit depth                                : 24 bits
  43. Compression mode                         : Lossless
  44. Stream size                              : 1.97 GiB (9%)
  45. Title                                    : The.Kindergarten.Teacher.2018.1080p.BluRay.REMUX.AVC.DTS-HD.MA.5.1-FGT
  46. Language                                 : English
  47. Default                                  : Yes
  48. Forced                                   : No
  49. Audio #2
  50. ID                                       : 3
  51. Format                                   : PCM
  52. Format settings                          : Little / Signed
  53. Codec ID                                 : A_PCM/INT/LIT
  54. Duration                                 : 1 h 37 min
  55. Bit rate mode                            : Constant
  56. Bit rate                                 : 2 304 kb/s
  57. Channel(s)                               : 2 channels
  58. Sampling rate                            : 48.0 kHz
  59. Frame rate                               : 30.000 FPS (1600 SPF)
  60. Bit depth                                : 24 bits
  61. Stream size                              : 1.56 GiB (7%)
  62. Title                                    : The.Kindergarten.Teacher.2018.1080p.BluRay.REMUX.AVC.DTS-HD.MA.5.1-FGT
  63. Language                                 : English
  64. Default                                  : No
  65. Forced                                   : No
  66. Text #1
  67. ID                                       : 4
  68. Format                                   : UTF-8
  69. Codec ID                                 : S_TEXT/UTF8
  70. Codec ID/Info                            : UTF-8 Plain Text
  71. Duration                                 : 1 h 34 min
  72. Bit rate                                 : 50 b/s
  73. Count of elements                        : 1073
  74. Stream size                              : 35.3 KiB (0%)
  75. Title                                    : English-SRT
  76. Language                                 : English
  77. Default                                  : Yes
  78. Forced                                   : No
  79. Text #2
  80. ID                                       : 5
  81. Format                                   : UTF-8
  82. Codec ID                                 : S_TEXT/UTF8
  83. Codec ID/Info                            : UTF-8 Plain Text
  84. Duration                                 : 1 h 34 min
  85. Bit rate                                 : 54 b/s
  86. Count of elements                        : 1152
  87. Stream size                              : 38.1 KiB (0%)
  88. Title                                    : English-SDH-SRT
  89. Language                                 : English
  90. Default                                  : No
  91. Forced                                   : No
  92. Text #3
  93. ID                                       : 6
  94. Format                                   : PGS
  95. Muxing mode                              : zlib
  96. Codec ID                                 : S_HDMV/PGS
  97. Codec ID/Info                            : Picture based subtitle format used on BDs/HD-DVDs
  98. Duration                                 : 1 h 34 min
  99. Bit rate                                 : 28.4 kb/s
  100. Count of elements                        : 2304
  101. Stream size                              : 19.3 MiB (0%)
  102. Title                                    : English-PGS
  103. Language                                 : English
  104. Default                                  : No
  105. Forced                                   : No
  106. Menu
  107. 00:00:00.000                             : en:Chapter 01
  108. 00:05:25.125                             : en:Chapter 02
  109. 00:14:39.416                             : en:Chapter 03
  110. 00:22:54.375                             : en:Chapter 04
  111. 00:32:35.666                             : en:Chapter 05
  112. 00:37:33.208                             : en:Chapter 06
  113. 00:46:00.750                             : en:Chapter 07
  114. 00:52:54.958                             : en:Chapter 08
  115. 01:01:15.500                             : en:Chapter 09
  116. 01:10:57.791                             : en:Chapter 10
  117. 01:17:13.083                             : en:Chapter 11
  118. 01:23:19.333                             : en:Chapter 12
复制代码






                                       
                                       

                                       
                                       
                                       




回复

使用道具 举报

懒得打字嘛,点击右侧快捷回复 【右侧内容,后台自定义】
您需要登录后才可以回帖 登录 | 立即加入

本版积分规则

Archiver|小黑屋| 蓝光电影网 |网站地图

Copyright © 2021 Comsenz Inc. Powered by 蓝光电影网

蓝光电影网

本站内容由用户自主分享和转载自互联网,转载目的在于传递更多信息,并不代表本网赞同其观点和对其真实性负责。

如有侵权、违反国家法律政策行为,请联系我们,我们会第一时间及时清除和处理!

举报反馈邮箱:[email protected]

快速回复 返回顶部 返回列表