找回密码

蓝光电影网

查看: 13|回复: 0

[动作] 死亡塔 Game.Of.Death.2.1981.DUBBED.1080p.BluRay.x264.DTS-FGT 7.39GB

[复制链接]
蓝光币
511
发表于 2019-8-28 09:17:31 | 显示全部楼层 |阅读模式


◎译  名 Game of Death II / Tower of Death / 灭亡之塔
◎片  名 灭亡塔
◎年  代 1981
◎产  地 中国香港
◎类  别 行动 / 悬疑
◎语  言 粤语 / 普通话
◎上映日期 1981-03-21
◎IMDb评分  5.2/10 from 2632 users
◎IMDb链接  http://www.imdb.com/title/tt0076709
◎豆瓣评分 6.7/10 from 2407 users
◎豆瓣链接 https://movie.douban.com/subject/1784747/
◎片  长 Hong Kong: 86 分钟
◎导  演 吴思远 See-Yuen Ng / 洪金宝 Sammo Hung Kam-Bo / 元奎 Corey Yuen
◎编  剧 Tin Shing Hoh / Chuo-Lun Ting
◎主  演 李小龙 Bruce Lee
       乔宏 Roy Chiao
       黄正利 Jang Lee Hwang
       李海生 Hoi Sang Lee
       元彪 Biao Yuen

◎标  签 李小龙 | 行动 | 香港 | 功夫 | 香港电影 | 1981 | 洪金宝 | 灭亡塔
◎简  介  
  一代宗师李振强(李小龙 饰)和武林高手秦谷(黄正利 饰)是生死之交,秦谷的莫名灭亡让李振强决心找到背后的真凶。哪晓得在这进程中,李振强不幸遇害,只留下了一个和灭亡塔有关的奥秘,没有人可以解开。
  振国(金泰中 饰)是李振强的弟弟,得知哥哥的死讯,闭关修炼多年的振国决议下山,为兄寻仇。跟随着李振强留下的线索,振国来到了奥秘的山庄当中,履历了诸多生死攸关的险情,并终极翻开了奥秘通道,来到了潜藏在山庄之下的宫殿当中。在这里,期待着他的居然是正是秦谷,振强和振国都落入了他一手策划的诡计漩涡当中。秦谷想要将振国杀死毁尸灭迹,遭到了后者的奋起还击。
  1. Video
  2. ID                                       : 1
  3. Format                                   : AVC
  4. Format/Info                              : Advanced Video Codec
  5. Format profile                           : [email protected]
  6. Format settings, CABAC                   : Yes
  7. Format settings, ReFrames                : 4 frames
  8. Codec ID                                 : V_MPEG4/ISO/AVC
  9. Duration                                 : 1h 36mn
  10. Bit rate                                 : 9 500 Kbps
  11. Width                                    : 1 920 pixels
  12. Height                                   : 800 pixels
  13. Display aspect ratio                     : 2.40:1
  14. Frame rate mode                          : Constant
  15. Frame rate                               : 23.976 fps
  16. Color space                              : YUV
  17. Chroma subsampling                       : 4:2:0
  18. Bit depth                                : 8 bits
  19. Scan type                                : Progressive
  20. Bits/(Pixel*Frame)                       : 0.258
  21. Stream size                              : 6.23 GiB (84%)
  22. Writing library                          : x264 core 114 r1924 08d04a4
  23. Encoding settings                        : cabac=1 / ref=4 / deblock=1:-3:-3 / analyse=0x3:0x133 / me=umh / subme=9 / psy=1 / psy_rd=1.00:0.00 / mixed_ref=1 / me_range=32 / chroma_me=1 / trellis=2 / 8x8dct=1 / cqm=0 / deadzone=21,11 / fast_pskip=0 / chroma_qp_offset=-2 / threads=3 / sliced_threads=0 / nr=0 / decimate=1 / interlaced=0 / constrained_intra=0 / bframes=8 / b_pyramid=2 / b_adapt=2 / b_bias=0 / direct=3 / weightb=1 / open_gop=0 / weightp=2 / keyint=250 / keyint_min=23 / scenecut=40 / intra_refresh=0 / rc=2pass / mbtree=0 / bitrate=9500 / ratetol=1.0 / qcomp=0.60 / qpmin=10 / qpmax=51 / qpstep=4 / cplxblur=20.0 / qblur=0.5 / ip_ratio=1.40 / pb_ratio=1.30 / aq=2:1.00
  24. Language                                 : English
  25. Default                                  : Yes
  26. Forced                                   : No
  27. Audio
  28. ID                                       : 2
  29. Format                                   : DTS
  30. Format/Info                              : Digital Theater Systems
  31. Mode                                     : 16
  32. Format settings, Endianness              : Big
  33. Codec ID                                 : A_DTS
  34. Duration                                 : 1h 36mn
  35. Bit rate mode                            : Constant
  36. Bit rate                                 : 1 509 Kbps
  37. Channel(s)                               : 6 channels
  38. Channel positions                        : Front: L C R, Side: L R, LFE
  39. Sampling rate                            : 48.0 KHz
  40. Bit depth                                : 16 bits
  41. Compression mode                         : Lossy
  42. Stream size                              : 1.01 GiB (14%)
  43. Language                                 : English
  44. Default                                  : Yes
  45. Forced                                   : No
复制代码









                                       
                                       

                                       
                                       
                                       




回复

使用道具 举报

懒得打字嘛,点击右侧快捷回复 【右侧内容,后台自定义】
您需要登录后才可以回帖 登录 | 立即加入

本版积分规则

Archiver|小黑屋| 蓝光电影网 |网站地图

Copyright © 2021 Comsenz Inc. Powered by 蓝光电影网

蓝光电影网

本站内容由用户自主分享和转载自互联网,转载目的在于传递更多信息,并不代表本网赞同其观点和对其真实性负责。

如有侵权、违反国家法律政策行为,请联系我们,我们会第一时间及时清除和处理!

举报反馈邮箱:[email protected]

快速回复 返回顶部 返回列表