找回密码

蓝光电影网

查看: 16|回复: 0

[喜剧] 阿拉丁/阿拉丁历险记 Aladdin.1992.1080p.BluRay.X264-AMIABLE 5.54GB

[复制链接]
蓝光币
511
发表于 2020-11-24 10:12:27 | 显示全部楼层 |阅读模式


◎译  名 阿拉丁/阿拉丁历险记
◎片  名 Aladdin
◎年  代 1992
◎产  地 美国
◎类  别 笑剧 / 动画 / 冒险
◎语  言 英语
◎上映日期 1992-11-25(美国)
◎IMDb评分  8/10 from 370188 users
◎IMDb链接  https://www.imdb.com/title/tt0103639/
◎豆瓣评分 8.2/10 from 61791 users
◎豆瓣链接 https://movie.douban.com/subject/1299513/
◎片  长 90 分钟
◎导  演 罗恩·克莱蒙兹 Ron Clements / 约翰·马斯克 John Musker
◎编  剧 罗恩·克莱蒙兹 Ron Clements / 约翰·马斯克 John Musker / 泰德·艾略特 Ted Elliott / 特里·鲁西奥 Terry Rossio / 凯文·利玛 Kevin Lima / 伯尼·马丁森 Burny Mattinson / 布瑞恩·皮门托尔 Brian Pimental / 罗杰·阿勒斯 Roger Allers / 达雷尔·鲁尼 Darrell Rooney / Larry Leker
◎主  演 斯科特·维内尔 Scott Weinger
       罗宾·威廉姆斯 Robin Williams
       琳达·拉金 Linda Larkin
       乔纳森·弗里曼 Jonathan Freeman
       弗兰克·维尔克 Frank Welker
       吉尔伯特·戈特弗雷德 Gilbert Gottfried
       查尔斯·阿德勒 Charles Adler
       杰克·安杰尔 Jack Angel
       科里·伯顿 Corey Burton
       吉姆·卡明斯 Jim Cummings
       詹妮弗·达林 Jennifer Darling
       黛比·德里贝里 Debi Derryberry
       杰里·豪泽 Jerry Houser
       Vera Lockwood
       雪莉·琳恩 Sherry Lynn
       米凯·麦高万 Mickie McGowan
       菲尔·普洛克特 Phil Proctor
       布拉德·凯恩 Brad Kane
       丽娅·萨隆加 Lea Salonga
       哈尔·史姑娘 Hal Smith
       Douglas Seale
       Bruce Adler
◎标  签 动画 | 迪斯尼 | 美国 | 阿拉丁 | 动画片 | 1992 | 恋爱 | 典范
◎简  介


  阿拉伯少年阿拉丁不但具有忠厚的朋友山公阿布的友谊,还具有一条奇异的魔法飞毡,他们在闹市中过着无忧无虑的欢畅生活。一天,城堡里的公主厌倦了无聊透顶的皇宫生活,决议单独一人偷跑出来见识里面的十丈软红。偷跑出来的公主在闹市里碰到了阿拉丁,阿拉丁对她一见钟情。同一时辰,邪恶国师诡计操纵阿拉丁帮助自己找到能实现愿望的神灯,阿拉丁固然不愿束手待毙,因而,他的冒险之旅起头了。
◎获奖情况
  第65届奥斯卡金像奖 ?(1993)
  最好音效剪辑(提名) 马克·马基尼
  最好声响(提名) 大卫·J·哈德森?/?道克·凯恩?/?梅尔·梅特卡夫?/?特里·波特
  最好原创配乐 艾伦·曼肯
  最好原创歌曲 艾伦·曼肯?/?蒂姆·赖斯
  最好原创歌曲(提名) 艾伦·曼肯?/?霍华德·阿什曼
  
  第47届英国电影学院奖 ?(1994)
  电影奖最好特别视觉结果(提名) 唐·保罗?/?史蒂夫·戈德伯格
  电影奖最好原创音乐(提名) 艾伦·曼肯
  
  第21届动画安妮奖 ?(1993)
  最好动画长片
  1. Video
  2. ID                                       : 1
  3. Format                                   : AVC
  4. Format/Info                              : Advanced Video Codec
  5. Format profile                           : [email protected]
  6. Format settings                          : CABAC / 4 Ref Frames
  7. Format settings, CABAC                   : Yes
  8. Format settings, Reference frames        : 4 frames
  9. Codec ID                                 : V_MPEG4/ISO/AVC
  10. Duration                                 : 1 h 30 min
  11. Bit rate                                 : 7 118 kb/s
  12. Width                                    : 1 920 pixels
  13. Height                                   : 1 040 pixels
  14. Display aspect ratio                     : 1.85:1
  15. Frame rate mode                          : Constant
  16. Frame rate                               : 23.976 (24000/1001/189150) FPS
  17. Color space                              : YUV
  18. Chroma subsampling                       : 4:2:0
  19. Bit depth                                : 8 bits
  20. Scan type                                : Progressive
  21. Bits/(Pixel*Frame)                       : 0.149
  22. Stream size                              : 4.40 GiB (81%)
  23. Writing library                          : x264 core 130 r2273 b3065e6
  24. Encoding settings                        : cabac=1 / ref=4 / deblock=1:0:0 / analyse=0x3:0x113 / me=umh / subme=8 / psy=1 / psy_rd=1.00:0.00 / mixed_ref=1 / me_range=16 / chroma_me=1 / trellis=1 / 8x8dct=1 / cqm=0 / deadzone=21,11 / fast_pskip=1 / chroma_qp_offset=-2 / threads=12 / lookahead_threads=2 / sliced_threads=0 / nr=0 / decimate=1 / interlaced=0 / bluray_compat=0 / constrained_intra=0 / bframes=3 / b_pyramid=2 / b_adapt=2 / b_bias=0 / direct=3 / weightb=1 / open_gop=0 / weightp=2 / keyint=240 / keyint_min=24 / scenecut=40 / intra_refresh=0 / rc_lookahead=50 / rc=2pass / mbtree=1 / bitrate=7118 / ratetol=1.0 / qcomp=0.60 / qpmin=0 / qpmax=69 / qpstep=4 / cplxblur=20.0 / qblur=0.5 / ip_ratio=1.40 / aq=1:1.00
  25. Language                                 : English
  26. Default                                  : Yes
  27. Forced                                   : No

  28. Audio
  29. ID                                       : 2
  30. Format                                   : DTS
  31. Format/Info                              : Digital Theater Systems
  32. Codec ID                                 : A_DTS
  33. Duration                                 : 1 h 30 min
  34. Bit rate mode                            : Constant
  35. Bit rate                                 : 1 509 kb/s
  36. Channel(s)                               : 6 channels
  37. Channel layout                           : C L R Ls Rs LFE
  38. Sampling rate                            : 48.0 kHz
  39. Frame rate                               : 93.750 FPS (512 SPF)
  40. Bit depth                                : 24 bits
  41. Compression mode                         : Lossy
  42. Stream size                              : 979 MiB (17%)
  43. Language                                 : English
  44. Default                                  : Yes
  45. Forced                                   : No

  46. Text #1
  47. ID                                       : 3
  48. Format                                   : UTF-8
  49. Codec ID                                 : S_TEXT/UTF8
  50. Codec ID/Info                            : UTF-8 Plain Text
  51. Language                                 : English
  52. Default                                  : No
  53. Forced                                   : No

  54. Text #2
  55. ID                                       : 4
  56. Format                                   : UTF-8
  57. Codec ID                                 : S_TEXT/UTF8
  58. Codec ID/Info                            : UTF-8 Plain Text
  59. Language                                 : English
  60. Default                                  : No
  61. Forced                                   : No

  62. Menu
  63. 00:00:00.000                             : en:00:00:00.000
  64. 00:03:06.061                             : en:00:03:06.061
  65. 00:06:47.324                             : en:00:06:47.324
  66. 00:12:37.423                             : en:00:12:37.423
  67. 00:16:34.619                             : en:00:16:34.619
  68. 00:19:39.053                             : en:00:19:39.053
  69. 00:23:50.471                             : en:00:23:50.471
  70. 00:27:39.324                             : en:00:27:39.324
  71. 00:31:21.630                             : en:00:31:21.630
  72. 00:34:55.677                             : en:00:34:55.677
  73. 00:37:20.363                             : en:00:37:20.363
  74. 00:41:13.388                             : en:00:41:13.388
  75. 00:43:32.860                             : en:00:43:32.860
  76. 00:47:17.043                             : en:00:47:17.043
  77. 00:48:39.959                             : en:00:48:39.959
  78. 00:55:20.025                             : en:00:55:20.025
  79. 00:57:37.746                             : en:00:57:37.746
  80. 01:03:04.906                             : en:01:03:04.906
  81. 01:07:24.916                             : en:01:07:24.916
  82. 01:10:07.412                             : en:01:10:07.412
  83. 01:10:41.654                             : en:01:10:41.654
  84. 01:15:31.610                             : en:01:15:31.610
  85. 01:18:57.983                             : en:01:18:57.983
  86. 01:21:41.438                             : en:01:21:41.438
  87. 01:25:43.555                             : en:01:25:43.555
复制代码









                                       
                                       

                                       
                                       
                                       




回复

使用道具 举报

懒得打字嘛,点击右侧快捷回复 【右侧内容,后台自定义】
您需要登录后才可以回帖 登录 | 立即加入

本版积分规则

Archiver|小黑屋| 蓝光电影网 |网站地图

Copyright © 2021 Comsenz Inc. Powered by 蓝光电影网

蓝光电影网

本站内容由用户自主分享和转载自互联网,转载目的在于传递更多信息,并不代表本网赞同其观点和对其真实性负责。

如有侵权、违反国家法律政策行为,请联系我们,我们会第一时间及时清除和处理!

举报反馈邮箱:[email protected]

快速回复 返回顶部 返回列表