找回密码

蓝光电影网

查看: 21|回复: 0

[剧情] 他们(国际版) Loro.2018.ITALIAN.1080p.BluRay.REMUX.AVC.DTS-HD.MA.5.1-FGT 33.08GB

[复制链接]
蓝光币
519
发表于 2019-6-30 22:52:07 | 显示全部楼层 |阅读模式


◎译  名 他们(国际版)
◎片  名 Loro
◎年  代 2018
◎产  地 意大利
◎类  别 剧情
◎语  言 意大利语
◎上映日期 2018-09-13(意大利)
◎IMDb评分  6.7/10 from 501 users
◎IMDb链接  http://www.imdb.com/title/tt10182822
◎豆瓣评分 0/10 from 0 users
◎豆瓣链接 https://movie.douban.com/subject/34431400/
◎片  长 150分钟
◎导  演 保罗·索伦蒂诺 Paolo Sorrentino
◎编  剧 保罗·索伦蒂诺 Paolo Sorrentino / 翁贝托·康塔罗 Umberto Contarello
◎主  演 托尼·塞尔维洛 Toni Servillo
      艾莱娜·索菲亚·里奇 Elena Sofia Ricci
      里卡多·斯卡马乔 Riccardo Scamarcio
      卡夏·斯穆特尼亚克 Kasia Smutniak

◎标  签 索伦蒂诺 | 意大利 | PaoloSorrentino | 政治 | 人性 | 義大利 | 电影院 | 法國
◎简  介  
  暂无相关剧情先容
  1. Video
  2. ID                                       : 1
  3. Format                                   : AVC
  4. Format/Info                              : Advanced Video Codec
  5. Format profile                           : [email protected]
  6. Format settings                          : CABAC / 3 Ref Frames
  7. Format settings, CABAC                   : Yes
  8. Format settings, ReFrames                : 3 frames
  9. Codec ID                                 : V_MPEG4/ISO/AVC
  10. Duration                                 : 2 h 31 min
  11. Bit rate mode                            : Variable
  12. Bit rate                                 : 28.0 Mb/s
  13. Maximum bit rate                         : 36.0 Mb/s
  14. Width                                    : 1 920 pixels
  15. Height                                   : 1 080 pixels
  16. Display aspect ratio                     : 16:9
  17. Frame rate mode                          : Constant
  18. Frame rate                               : 25.000 FPS
  19. Color space                              : YUV
  20. Chroma subsampling                       : 4:2:0
  21. Bit depth                                : 8 bits
  22. Scan type                                : Progressive
  23. Bits/(Pixel*Frame)                       : 0.540
  24. Stream size                              : 29.4 GiB (89%)
  25. Title                                    : Loro.2018.ITALIAN.1080p.BluRay.REMUX.AVC.DTS-HD.MA.5.1-FGT
  26. Writing library                          : x264 core 157 r2935 545de2f
  27. Encoding settings                        : cabac=1 / ref=4 / deblock=1:-1:-1 / analyse=0x3:0x133 / me=umh / subme=10 / psy=1 / psy_rd=1.00:0.15 / mixed_ref=1 / me_range=24 / chroma_me=1 / trellis=2 / 8x8dct=1 / cqm=0 / deadzone=21,11 / fast_pskip=1 / chroma_qp_offset=-3 / threads=12 / lookahead_threads=1 / sliced_threads=0 / slices=4 / nr=0 / decimate=1 / interlaced=fake / bluray_compat=1 / stitchable=1 / constrained_intra=0 / bframes=3 / b_pyramid=1 / b_adapt=2 / b_bias=0 / direct=3 / weightb=1 / open_gop=1 / weightp=1 / keyint=25 / keyint_min=1 / scenecut=60 / intra_refresh=0 / rc_lookahead=25 / rc=2pass / mbtree=1 / bitrate=28000 / ratetol=0.1 / qcomp=0.90 / qpmin=0 / qpmax=69 / qpstep=4 / cplxblur=20.0 / qblur=0.5 / vbv_maxrate=36000 / vbv_bufsize=30000 / nal_hrd=vbr / filler=0 / ip_ratio=1.40 / aq=1:1.00
  28. Language                                 : English
  29. Default                                  : No
  30. Forced                                   : No
  31. Color range                              : Limited
  32. Color primaries                          : BT.709
  33. Transfer characteristics                 : BT.709
  34. Matrix coefficients                      : BT.709
  35. Audio
  36. ID                                       : 2
  37. Format                                   : DTS XLL
  38. Format/Info                              : Digital Theater Systems
  39. Commercial name                          : DTS-HD Master Audio
  40. Codec ID                                 : A_DTS
  41. Duration                                 : 2 h 31 min
  42. Bit rate mode                            : Variable
  43. Bit rate                                 : 3 458 kb/s
  44. Channel(s)                               : 6 channels
  45. Channel layout                           : C L R Ls Rs LFE
  46. Sampling rate                            : 48.0 kHz
  47. Frame rate                               : 93.750 FPS (512 SPF)
  48. Bit depth                                : 24 bits
  49. Compression mode                         : Lossless
  50. Stream size                              : 3.65 GiB (11%)
  51. Title                                    : Loro.2018.ITALIAN.1080p.BluRay.REMUX.AVC.DTS-HD.MA.5.1-FGT
  52. Language                                 : Italian
  53. Default                                  : Yes
  54. Forced                                   : No
  55. Text
  56. ID                                       : 3
  57. Format                                   : PGS
  58. Muxing mode                              : zlib
  59. Codec ID                                 : S_HDMV/PGS
  60. Codec ID/Info                            : Picture based subtitle format used on BDs/HD-DVDs
  61. Duration                                 : 2 h 21 min
  62. Bit rate                                 : 33.4 kb/s
  63. Count of elements                        : 3352
  64. Stream size                              : 33.9 MiB (0%)
  65. Title                                    : English-PGS
  66. Language                                 : English
  67. Default                                  : Yes
  68. Forced                                   : No
  69. Menu
  70. 00:00:00.000                             : en:Chapter 01
  71. 00:12:11.520                             : en:Chapter 02
  72. 00:26:09.800                             : en:Chapter 03
  73. 00:37:42.680                             : en:Chapter 04
  74. 00:51:13.160                             : en:Chapter 05
  75. 01:03:55.280                             : en:Chapter 06
  76. 01:11:24.880                             : en:Chapter 07
  77. 01:28:30.040                             : en:Chapter 08
  78. 01:38:57.800                             : en:Chapter 09
  79. 01:51:50.240                             : en:Chapter 10
  80. 02:01:46.800                             : en:Chapter 11
  81. 02:18:15.760                             : en:Chapter 12
复制代码






                                       
                                       

                                       
                                       
                                       




回复

使用道具 举报

懒得打字嘛,点击右侧快捷回复 【右侧内容,后台自定义】
您需要登录后才可以回帖 登录 | 立即加入

本版积分规则

Archiver|小黑屋| 蓝光电影网 |网站地图

Copyright © 2021 Comsenz Inc. Powered by 蓝光电影网

蓝光电影网

本站内容由用户自主分享和转载自互联网,转载目的在于传递更多信息,并不代表本网赞同其观点和对其真实性负责。

如有侵权、违反国家法律政策行为,请联系我们,我们会第一时间及时清除和处理!

举报反馈邮箱:[email protected]

快速回复 返回顶部 返回列表