找回密码

蓝光电影网

查看: 19|回复: 0

[其他] 美女与野兽之贝儿的心愿/美女与野兽:贝儿的心愿 Beauty.and.the.Beast.The.Enchanted.Christmas.1997.1080p.BluRay.x264-PSYCHD 4.39GB

[复制链接]
蓝光币
511
发表于 2020-10-4 10:44:41 | 显示全部楼层 |阅读模式


◎译  名 美男与野兽之贝儿的心愿/美男与野兽:贝儿的心愿
◎片  名 Beauty and the Beast: The Enchanted Christmas
◎年  代 1997
◎产  地 加拿大,美国
◎类  别 动画 / 音乐 / 家庭
◎语  言 英语
◎上映日期 1997-11-11(美国)
◎IMDb评分  6/10 from 8821 users
◎IMDb链接  https://www.imdb.com/title/tt0118692/
◎豆瓣评分 8.0/10 from 4612 users
◎豆瓣链接 https://movie.douban.com/subject/1302022/
◎片  长 72分钟
◎导  演 安德鲁·耐特 Andrew Knight
◎编  剧 弗利普·科布勒 Flip Kobler / 辛迪·马库斯 Cindy Marcus / 比尔·莫兹 Bill Motz / 鲍勃·罗斯 Bob Roth
◎主  演 佩吉·奥哈拉 Paige O'Hara
       罗比·本森 Robby Benson
       杰里·奥尔巴赫 Jerry Orbach
       戴维·奥咯噔·施蒂尔斯 David Ogden Stiers
       伯纳黛特·彼得斯 Bernadette Peters
       蒂姆·克里 Tim Curry
       海利·乔·奥斯蒙 Haley Joel Osment
       弗兰克·维尔克 Frank Welker
       杰夫·贝内特 Jeff Bennett
       吉姆·卡明斯 Jim Cummings
       凯斯·索西 Kath Soucie
       保罗·雷宾斯 Paul Reubens
       安吉拉·兰斯伯瑞 Angela Lansbury
       Rebecca Luker
       霍华德·麦克格林 Howard McGillin
       Martin Vidnovic
       姜广涛 Guangtao Jiang
       Judy Kaye
       Norma Herrera
       格雷格·埃德尔曼 Gregg Edelman
       安德鲁·基南-博尔格 Andrew Keenan Bolger
       Judith Blazer
       Jeff Blumenkrantz
◎标  签 动画 | 迪斯尼 | Disney | 美国 | 童话 | 典范 | 恋爱 | 1997
◎简  介


  本片剧情内容则采用回忆倒叙的方式,论述美男贝儿回忆当初到城堡当犯人时的第一个圣诞节,贝儿叫醒了城堡落空已久的欢腾感受,使得城堡重新享用圣诞节庆的温馨,终究也让野兽重新体味人生的光亮面,抛弃自擅自立的心理,贝儿与野兽才相互相知的情形。本片除电影原班人马表演之外,还多了三个新脚色,包括名叫安吉祥的圣诞树饰品娃娃、凶险的管风琴以及他的小仆从短笛等贝儿必须克服管风琴从中作恶,才能完故志愿使野兽重享圣诞节的欢乐。
◎获奖情况
  第26届动画安妮奖 ?(1998)
  最好导演(提名) 安德鲁·耐特
  最好编剧(提名) 比尔·莫兹?/?鲍勃·罗斯?/?辛迪·马库斯?/?弗利普·科布勒
  最好男配音(提名) 蒂姆·克里?/?杰里·奥尔巴赫
  最好配乐(提名) 蕾切尔·波特曼?/?唐·布莱克
  1. Video
  2. ID                                       : 1
  3. Format                                   : AVC
  4. Format/Info                              : Advanced Video Codec
  5. Format profile                           : [email protected]
  6. Format settings                          : CABAC / 4 Ref Frames
  7. Format settings, CABAC                   : Yes
  8. Format settings, Reference frames        : 4 frames
  9. Codec ID                                 : V_MPEG4/ISO/AVC
  10. Duration                                 : 1 h 10 min
  11. Bit rate                                 : 7 336 kb/s
  12. Width                                    : 1 920 pixels
  13. Height                                   : 1 080 pixels
  14. Display aspect ratio                     : 16:9
  15. Frame rate mode                          : Constant
  16. Frame rate                               : 23.976 (24000/1001/189150) FPS
  17. Color space                              : YUV
  18. Chroma subsampling                       : 4:2:0
  19. Bit depth                                : 8 bits
  20. Scan type                                : Progressive
  21. Bits/(Pixel*Frame)                       : 0.148
  22. Stream size                              : 3.54 GiB (81%)
  23. Writing library                          : x264 core 148 r2744 b97ae06
  24. Encoding settings                        : cabac=1 / ref=4 / deblock=1:1:-2 / analyse=0x3:0x113 / me=umh / subme=8 / psy=1 / psy_rd=0.50:0.00 / mixed_ref=1 / me_range=32 / chroma_me=1 / trellis=1 / 8x8dct=1 / cqm=0 / deadzone=21,11 / fast_pskip=1 / chroma_qp_offset=-2 / threads=24 / lookahead_threads=4 / sliced_threads=0 / nr=0 / decimate=1 / interlaced=0 / bluray_compat=0 / constrained_intra=0 / bframes=3 / b_pyramid=2 / b_adapt=2 / b_bias=0 / direct=3 / weightb=1 / open_gop=0 / weightp=2 / keyint=240 / keyint_min=24 / scenecut=40 / intra_refresh=0 / rc_lookahead=50 / rc=2pass / mbtree=1 / bitrate=7336 / ratetol=1.0 / qcomp=0.60 / qpmin=0 / qpmax=69 / qpstep=4 / cplxblur=20.0 / qblur=0.5 / ip_ratio=1.40 / aq=3:0.50
  25. Default                                  : Yes
  26. Forced                                   : No
  27. Statistics Tags Issue                    : no_variable_data 1970-01-01 00:00:00 / no_variable_data 2010-02-22 21:41:29
  28. FromStats_BitRate                        : 7338588
  29. FromStats_Duration                       : 01:10:43.281000000
  30. FromStats_FrameCount                     : 101737
  31. FromStats_StreamSize                     : 3892461584

  32. Audio
  33. ID                                       : 2
  34. Format                                   : DTS
  35. Format/Info                              : Digital Theater Systems
  36. Codec ID                                 : A_DTS
  37. Duration                                 : 1 h 10 min
  38. Bit rate mode                            : Constant
  39. Bit rate                                 : 1 509 kb/s
  40. Channel(s)                               : 6 channels
  41. Channel layout                           : C L R Ls Rs LFE
  42. Sampling rate                            : 48.0 kHz
  43. Frame rate                               : 93.750 FPS (512 SPF)
  44. Bit depth                                : 24 bits
  45. Compression mode                         : Lossy
  46. Stream size                              : 763 MiB (17%)
  47. Language                                 : English
  48. Default                                  : Yes
  49. Forced                                   : No
  50. Statistics Tags Issue                    : no_variable_data 1970-01-01 00:00:00 / no_variable_data 2010-02-22 21:41:29
  51. FromStats_BitRate                        : 1508999
  52. FromStats_Duration                       : 01:10:43.286000000
  53. FromStats_FrameCount                     : 397808
  54. FromStats_StreamSize                     : 800389696

  55. Text #1
  56. ID                                       : 3
  57. Format                                   : UTF-8
  58. Codec ID                                 : S_TEXT/UTF8
  59. Codec ID/Info                            : UTF-8 Plain Text
  60. Language                                 : English
  61. Default                                  : No
  62. Forced                                   : No
  63. Statistics Tags Issue                    : no_variable_data 1970-01-01 00:00:00 / no_variable_data 2010-02-22 21:41:29
  64. FromStats_BitRate                        : 60
  65. FromStats_Duration                       : 01:04:28.907000000
  66. FromStats_FrameCount                     : 942
  67. FromStats_StreamSize                     : 29386

  68. Text #2
  69. ID                                       : 4
  70. Format                                   : UTF-8
  71. Codec ID                                 : S_TEXT/UTF8
  72. Codec ID/Info                            : UTF-8 Plain Text
  73. Title                                    : SDH
  74. Language                                 : English
  75. Default                                  : No
  76. Forced                                   : No
  77. Statistics Tags Issue                    : no_variable_data 1970-01-01 00:00:00 / no_variable_data 2010-02-22 21:41:29
  78. FromStats_BitRate                        : 69
  79. FromStats_Duration                       : 01:05:17.872000000
  80. FromStats_FrameCount                     : 1175
  81. FromStats_StreamSize                     : 33892

  82. Menu
  83. 00:00:00.000                             : en:00:00:00.000
  84. 00:04:25.307                             : en:00:04:25.307
  85. 00:10:17.158                             : en:00:10:17.158
  86. 00:14:17.523                             : en:00:14:17.523
  87. 00:23:21.609                             : en:00:23:21.609
  88. 00:26:11.236                             : en:00:26:11.236
  89. 00:29:25.263                             : en:00:29:25.263
  90. 00:33:53.156                             : en:00:33:53.156
  91. 00:39:17.564                             : en:00:39:17.564
  92. 00:45:54.418                             : en:00:45:54.418
  93. 00:51:39.596                             : en:00:51:39.596
  94. 01:03:30.765                             : en:01:03:30.765
复制代码




                                       
                                       

                                       
                                       
                                       




回复

使用道具 举报

懒得打字嘛,点击右侧快捷回复 【右侧内容,后台自定义】
您需要登录后才可以回帖 登录 | 立即加入

本版积分规则

Archiver|小黑屋| 蓝光电影网 |网站地图

Copyright © 2021 Comsenz Inc. Powered by 蓝光电影网

蓝光电影网

本站内容由用户自主分享和转载自互联网,转载目的在于传递更多信息,并不代表本网赞同其观点和对其真实性负责。

如有侵权、违反国家法律政策行为,请联系我们,我们会第一时间及时清除和处理!

举报反馈邮箱:[email protected]

快速回复 返回顶部 返回列表