找回密码

蓝光电影网

查看: 22|回复: 0

[喜剧] 水性杨花/像风般自由 Easy.Virtue.2008.1080p.BluRay.x264.DD5.1-FGT 10.66GB

[复制链接]
蓝光币
682
发表于 2020-11-24 09:14:30 | 显示全部楼层 |阅读模式


◎译  名 水性杨花/像风般自在/汗漫/爱,为所欲为(台)
◎片  名 Easy Virtue
◎年  代 2008
◎产  地 英国,加拿大
◎类  别 笑剧 / 恋爱
◎语  言 英语,法语
◎上映日期 2008-09-08
◎IMDb评分  6.7/10 from 19998 users
◎IMDb链接  https://www.imdb.com/title/tt0808244/
◎豆瓣评分 7.5/10 from 13090 users
◎豆瓣链接 https://movie.douban.com/subject/3007819/
◎片  长 97 分钟
◎导  演 斯蒂芬·埃利奥特 Stephan Elliott / 史蒂芬·艾略特 Stephen Elliot
◎编  剧 斯蒂芬·埃利奥特 Stephan Elliott / 诺埃尔·考沃德 Noel Coward / 史蒂芬·艾略特 Stephen Elliot / Sheridan Jobbins
◎主  演 杰西卡·贝尔 Jessica Biel
       本·巴恩斯 Ben Barnes
       克里斯汀·斯科特·托马斯 Kristin Scott Thomas
       科林·费尔斯 Colin Firth
       金伯莉·尼克松 Kimberley Nixon
       Sheridan Jobbins
       Jim McManus
       Rebel Penfold-Russell
       凯瑟琳·帕金森 Katherine Parkinson
       劳伦斯·理查德森 Laurence Richardson
       夏洛特·莱利 Charlotte Riley
       斯蒂芬·埃利奥特 Stephan Elliott
       克里斯蒂安·布拉辛顿 Christian Brassington
       Michael Archer
       克里斯·马歇尔 Kris Marshall
◎标  签 英国 | ColinFirth | 恋爱 | 英国电影 | JessicaBiel | 2008 | KristinScottThomas | 电影
◎简  介


  1929年的英国,惠特克太太(克里斯汀?斯科特?托马斯 Kristin Scott Thomas 饰)是贵族家庭的掌门人,她经心筹划着家务,平衡着丈夫(科林?费斯 Colin Firth 饰)及两个女儿的关系。不外,一切却因宗子约翰?惠特克(本?巴恩斯 Ben Barnes 饰)的归来被打破了。约翰闪婚的妻子是明艳动听的美国赛车手拉丽达(杰西卡?贝尔 Jessica Biel 饰)。她的很多行为都被正统的婆婆视为放浪。而且,两个女儿也看她不扎眼,替哥哥惋惜。拉丽达跟老公的朋友们前往兜风,他人文雅地骑马,她却驾驶着摩托追风逐电。孤立时,她会跟公公吐露苦衷,两人甚至在舞会上翩翩起舞。这让工作演变成婆媳间的恶斗……
  
  本片改编自诺埃尔?考沃德的戏剧,克里斯汀?斯科特?托马斯凭仗此片获英国自力电影奖最好女配角奖提名,该片还被选作多伦多电影节的放映影片,杰西卡?贝尔在本片中初次献声。
  1. Video
  2. ID                                       : 1
  3. Format                                   : AVC
  4. Format/Info                              : Advanced Video Codec
  5. Format profile                           : [email protected]
  6. Format settings, CABAC                   : Yes
  7. Format settings, ReFrames                : 4 frames
  8. Codec ID                                 : V_MPEG4/ISO/AVC
  9. Duration                                 : 1h 36mn
  10. Bit rate                                 : 14.8 Mbps
  11. Width                                    : 1 920 pixels
  12. Height                                   : 820 pixels
  13. Display aspect ratio                     : 2.35:1
  14. Frame rate mode                          : Constant
  15. Frame rate                               : 23.976 (24000/1001) fps
  16. Color space                              : YUV
  17. Chroma subsampling                       : 4:2:0
  18. Bit depth                                : 8 bits
  19. Scan type                                : Progressive
  20. Bits/(Pixel*Frame)                       : 0.393
  21. Stream size                              : 10.0 GiB (94%)
  22. Writing library                          : x264 core 129 r2230kMod 1cffe9f
  23. Encoding settings                        : cabac=1 / ref=4 / deblock=1:-3:-3 / analyse=0x3:0x133 / me=umh / subme=11 / psy=1 / fade_compensate=0.00 / psy_rd=1.00:0.00 / mixed_ref=1 / me_range=64 / chroma_me=1 / trellis=2 / 8x8dct=1 / cqm=0 / deadzone=21,11 / fast_pskip=0 / chroma_qp_offset=-2 / threads=6 / lookahead_threads=1 / sliced_threads=0 / nr=0 / decimate=1 / interlaced=0 / bluray_compat=0 / constrained_intra=0 / bframes=11 / b_pyramid=2 / b_adapt=2 / b_bias=0 / direct=3 / weightb=1 / open_gop=0 / weightp=2 / keyint=240 / keyint_min=23 / scenecut=40 / intra_refresh=0 / rc_lookahead=60 / rc=crf / mbtree=0 / crf=17.7000 / qcomp=0.75 / qpmin=0 / qpmax=69 / qpstep=4 / vbv_maxrate=50000 / vbv_bufsize=62500 / crf_max=0.0 / nal_hrd=none / ip_ratio=1.30 / pb_ratio=1.15 / aq=3:0.60
  24. Language                                 : English
  25. Default                                  : Yes
  26. Forced                                   : No
  27. Color range                              : Limited
  28. Matrix coefficients                      : BT.709
  29. Audio
  30. ID                                       : 2
  31. Format                                   : AC-3
  32. Format/Info                              : Audio Coding 3
  33. Mode extension                           : CM (complete main)
  34. Format settings, Endianness              : Big
  35. Codec ID                                 : A_AC3
  36. Duration                                 : 1h 36mn
  37. Bit rate mode                            : Constant
  38. Bit rate                                 : 640 Kbps
  39. Channel(s)                               : 6 channels
  40. Channel positions                        : Front: L C R, Side: L R, LFE
  41. Sampling rate                            : 48.0 KHz
  42. Frame rate                               : 31.250 fps (1536 spf)
  43. Compression mode                         : Lossy
  44. Stream size                              : 442 MiB (4%)
  45. Language                                 : English
  46. Default                                  : Yes
  47. Forced                                   : No
  48. Text #1
  49. ID                                       : 3
  50. Format                                   : UTF-8
  51. Codec ID                                 : S_TEXT/UTF8
  52. Codec ID/Info                            : UTF-8 Plain Text
  53. Title                                    : English
  54. Language                                 : English
  55. Default                                  : No
  56. Forced                                   : No
  57. Text #2
  58. ID                                       : 4
  59. Format                                   : UTF-8
  60. Codec ID                                 : S_TEXT/UTF8
  61. Codec ID/Info                            : UTF-8 Plain Text
  62. Title                                    : English-SDH
  63. Language                                 : English
  64. Default                                  : No
  65. Forced                                   : No
  66. Menu
  67. 00:00:00.000                             : en:Chapter 1
  68. 00:02:37.782                             : en:Chapter 2
  69. 00:06:16.793                             : en:Chapter 3
  70. 00:13:42.738                             : en:Chapter 4
  71. 00:21:24.366                             : en:Chapter 5
  72. 00:25:00.582                             : en:Chapter 6
  73. 00:30:59.190                             : en:Chapter 7
  74. 00:37:17.526                             : en:Chapter 8
  75. 00:44:58.362                             : en:Chapter 9
  76. 00:52:45.996                             : en:Chapter 10
  77. 01:01:50.915                             : en:Chapter 11
  78. 01:08:34.777                             : en:Chapter 12
  79. 01:13:36.703                             : en:Chapter 13
  80. 01:19:04.030                             : en:Chapter 14
  81. 01:26:45.074                             : en:Chapter 15
  82. 01:29:58.184                             : en:Chapter 16
复制代码








                                       
                                       

                                       
                                       
                                       




回复

使用道具 举报

懒得打字嘛,点击右侧快捷回复 【右侧内容,后台自定义】
您需要登录后才可以回帖 登录 | 立即加入

本版积分规则

Archiver|小黑屋| 蓝光电影网 |网站地图

Copyright © 2021 Comsenz Inc. Powered by 蓝光电影网

蓝光电影网

本站内容由用户自主分享和转载自互联网,转载目的在于传递更多信息,并不代表本网赞同其观点和对其真实性负责。

如有侵权、违反国家法律政策行为,请联系我们,我们会第一时间及时清除和处理!

举报反馈邮箱:[email protected]

快速回复 返回顶部 返回列表