找回密码

蓝光电影网

查看: 14|回复: 0

[剧情] 南希·德鲁和隐藏的楼梯/神探南茜与隐藏的楼梯 Nancy.Drew.and.the.Hidden.Staircase.2019.1080p.BluRay.REMUX.AVC.DTS-HD.MA.5.1-FGT 16.53GB

[复制链接]
蓝光币
519
发表于 2019-6-30 22:49:51 | 显示全部楼层 |阅读模式


◎译  名 南希·德鲁和隐藏的楼梯 / 神探南茜与隐藏的楼梯
◎片  名 Nancy Drew and the Hidden Staircase
◎年  代 2019
◎产  地 美国
◎类  别 剧情 / 家庭 / 犯罪
◎语  言 英语
◎上映日期 2019-03-15(美国)
◎IMDb评分  5.7/10 from 1085 users
◎IMDb链接  http://www.imdb.com/title/tt8323104
◎豆瓣评分 0/10 from 0 users
◎豆瓣链接 https://movie.douban.com/subject/30201691/
◎片  长 89分钟
◎导  演 Katt Shea
◎主  演 索菲娅·莉莉丝 Sophia Lillis
      山姆·特拉梅尔 Sam Trammell
      劳拉·威金斯 Laura Wiggins
      安德利娅·安德斯 Andrea Anders
      琳达·拉文 Linda Lavin
      Mackenzie Graham
      杰西·C·博伊德 Jesse C. Boyd
      Jon Briddell
      埃文·卡斯特罗 Evan Castelloe
      Jennifer Riker
      Melanie Leanne Miller

◎标  签 悬疑 | 美国 | 美国电影 | 犯罪 | 剧情 | 2019 | 索菲娅·莉莉丝 | 电影
◎简  介  
  索菲娅·莉莉丝([小丑回魂])将参演华纳打造的新片[南希·德鲁和隐藏的楼梯](Nancy Drew and the Hidden Staircase,暂译)。早在1939韶华纳曾打造老版电影。影片故事报告维多利亚时代,一对上了年数的姐妹在房里遭受希奇事务,而她们更是被控告谋杀。而南希必须找到其中缘由,以此还两姐妹明净。该片由艾伦·德杰尼勒斯、杰夫·克利曼制片,估计今年5月展开拍摄。
  1. Video
  2. ID                                       : 1
  3. Format                                   : AVC
  4. Format/Info                              : Advanced Video Codec
  5. Format profile                           : [email protected]
  6. Format settings                          : CABAC / 4 Ref Frames
  7. Format settings, CABAC                   : Yes
  8. Format settings, ReFrames                : 4 frames
  9. Codec ID                                 : V_MPEG4/ISO/AVC
  10. Duration                                 : 1 h 29 min
  11. Bit rate mode                            : Variable
  12. Bit rate                                 : 21.9 Mb/s
  13. Maximum bit rate                         : 30.0 Mb/s
  14. Width                                    : 1 920 pixels
  15. Height                                   : 1 080 pixels
  16. Display aspect ratio                     : 16:9
  17. Frame rate mode                          : Constant
  18. Frame rate                               : 23.976 (24000/1001) FPS
  19. Color space                              : YUV
  20. Chroma subsampling                       : 4:2:0
  21. Bit depth                                : 8 bits
  22. Scan type                                : Progressive
  23. Bits/(Pixel*Frame)                       : 0.440
  24. Stream size                              : 13.6 GiB (83%)
  25. Title                                    : Nancy.Drew.and.the.Hidden.Staircase.2019.1080p.BluRay.REMUX.AVC.DTS-HD.MA.5.1-FGT
  26. Language                                 : English
  27. Default                                  : No
  28. Forced                                   : No
  29. Audio #1
  30. ID                                       : 2
  31. Format                                   : DTS XLL
  32. Format/Info                              : Digital Theater Systems
  33. Commercial name                          : DTS-HD Master Audio
  34. Codec ID                                 : A_DTS
  35. Duration                                 : 1 h 29 min
  36. Bit rate mode                            : Variable
  37. Bit rate                                 : 2 619 kb/s
  38. Channel(s)                               : 6 channels
  39. Channel layout                           : C L R Ls Rs LFE
  40. Sampling rate                            : 48.0 kHz
  41. Frame rate                               : 93.750 FPS (512 SPF)
  42. Bit depth                                : 24 bits
  43. Compression mode                         : Lossless
  44. Stream size                              : 1.63 GiB (10%)
  45. Title                                    : Nancy.Drew.and.the.Hidden.Staircase.2019.1080p.BluRay.REMUX.AVC.DTS-HD.MA.5.1-FGT
  46. Language                                 : English
  47. Default                                  : Yes
  48. Forced                                   : No
  49. Audio #2
  50. ID                                       : 3
  51. Format                                   : AC-3
  52. Format/Info                              : Audio Coding 3
  53. Commercial name                          : Dolby Digital
  54. Codec ID                                 : A_AC3
  55. Duration                                 : 1 h 29 min
  56. Bit rate mode                            : Constant
  57. Bit rate                                 : 640 kb/s
  58. Channel(s)                               : 6 channels
  59. Channel layout                           : L R C LFE Ls Rs
  60. Sampling rate                            : 48.0 kHz
  61. Frame rate                               : 31.250 FPS (1536 SPF)
  62. Bit depth                                : 16 bits
  63. Compression mode                         : Lossy
  64. Stream size                              : 409 MiB (2%)
  65. Title                                    : Nancy.Drew.and.the.Hidden.Staircase.2019.1080p.BluRay.REMUX.AVC.DTS-HD.MA.5.1-FGT
  66. Language                                 : French
  67. Service kind                             : Complete Main
  68. Default                                  : No
  69. Forced                                   : No
  70. Audio #3
  71. ID                                       : 4
  72. Format                                   : AC-3
  73. Format/Info                              : Audio Coding 3
  74. Commercial name                          : Dolby Digital
  75. Codec ID                                 : A_AC3
  76. Duration                                 : 1 h 29 min
  77. Bit rate mode                            : Constant
  78. Bit rate                                 : 640 kb/s
  79. Channel(s)                               : 6 channels
  80. Channel layout                           : L R C LFE Ls Rs
  81. Sampling rate                            : 48.0 kHz
  82. Frame rate                               : 31.250 FPS (1536 SPF)
  83. Bit depth                                : 16 bits
  84. Compression mode                         : Lossy
  85. Stream size                              : 409 MiB (2%)
  86. Title                                    : Nancy.Drew.and.the.Hidden.Staircase.2019.1080p.BluRay.REMUX.AVC.DTS-HD.MA.5.1-FGT
  87. Language                                 : Spanish
  88. Service kind                             : Complete Main
  89. Default                                  : No
  90. Forced                                   : No
  91. Audio #4
  92. ID                                       : 5
  93. Format                                   : AC-3
  94. Format/Info                              : Audio Coding 3
  95. Commercial name                          : Dolby Digital
  96. Codec ID                                 : A_AC3
  97. Duration                                 : 1 h 29 min
  98. Bit rate mode                            : Constant
  99. Bit rate                                 : 640 kb/s
  100. Channel(s)                               : 6 channels
  101. Channel layout                           : L R C LFE Ls Rs
  102. Sampling rate                            : 48.0 kHz
  103. Frame rate                               : 31.250 FPS (1536 SPF)
  104. Bit depth                                : 16 bits
  105. Compression mode                         : Lossy
  106. Stream size                              : 409 MiB (2%)
  107. Title                                    : Nancy.Drew.and.the.Hidden.Staircase.2019.1080p.BluRay.REMUX.AVC.DTS-HD.MA.5.1-FGT
  108. Language                                 : Swedish
  109. Service kind                             : Complete Main
  110. Default                                  : No
  111. Forced                                   : No
  112. Text #1
  113. ID                                       : 6
  114. Format                                   : UTF-8
  115. Codec ID                                 : S_TEXT/UTF8
  116. Codec ID/Info                            : UTF-8 Plain Text
  117. Duration                                 : 1 h 25 min
  118. Bit rate                                 : 78 b/s
  119. Count of elements                        : 1521
  120. Stream size                              : 49.2 KiB (0%)
  121. Title                                    : English-SRT
  122. Language                                 : English
  123. Default                                  : Yes
  124. Forced                                   : No
  125. Text #2
  126. ID                                       : 7
  127. Format                                   : PGS
  128. Muxing mode                              : zlib
  129. Codec ID                                 : S_HDMV/PGS
  130. Codec ID/Info                            : Picture based subtitle format used on BDs/HD-DVDs
  131. Duration                                 : 1 h 25 min
  132. Bit rate                                 : 48.7 kb/s
  133. Count of elements                        : 3042
  134. Stream size                              : 29.8 MiB (0%)
  135. Title                                    : English-PGS
  136. Language                                 : English
  137. Default                                  : No
  138. Forced                                   : No
  139. Text #3
  140. ID                                       : 8
  141. Format                                   : PGS
  142. Muxing mode                              : zlib
  143. Codec ID                                 : S_HDMV/PGS
  144. Codec ID/Info                            : Picture based subtitle format used on BDs/HD-DVDs
  145. Duration                                 : 1 h 28 min
  146. Bit rate                                 : 43.2 kb/s
  147. Count of elements                        : 2796
  148. Stream size                              : 27.3 MiB (0%)
  149. Title                                    : French-PGS
  150. Language                                 : French
  151. Default                                  : No
  152. Forced                                   : No
  153. Text #4
  154. ID                                       : 9
  155. Format                                   : PGS
  156. Muxing mode                              : zlib
  157. Codec ID                                 : S_HDMV/PGS
  158. Codec ID/Info                            : Picture based subtitle format used on BDs/HD-DVDs
  159. Duration                                 : 1 h 28 min
  160. Bit rate                                 : 41.9 kb/s
  161. Count of elements                        : 2796
  162. Stream size                              : 26.5 MiB (0%)
  163. Title                                    : Spanish-PGS
  164. Language                                 : Spanish
  165. Default                                  : No
  166. Forced                                   : No
  167. Text #5
  168. ID                                       : 10
  169. Format                                   : PGS
  170. Muxing mode                              : zlib
  171. Codec ID                                 : S_HDMV/PGS
  172. Codec ID/Info                            : Picture based subtitle format used on BDs/HD-DVDs
  173. Duration                                 : 1 h 28 min
  174. Bit rate                                 : 41.4 kb/s
  175. Count of elements                        : 2788
  176. Stream size                              : 26.2 MiB (0%)
  177. Title                                    : Danish-PGS
  178. Language                                 : Danish
  179. Default                                  : No
  180. Forced                                   : No
  181. Text #6
  182. ID                                       : 11
  183. Format                                   : PGS
  184. Muxing mode                              : zlib
  185. Codec ID                                 : S_HDMV/PGS
  186. Codec ID/Info                            : Picture based subtitle format used on BDs/HD-DVDs
  187. Duration                                 : 1 h 28 min
  188. Bit rate                                 : 40.5 kb/s
  189. Count of elements                        : 2802
  190. Stream size                              : 25.6 MiB (0%)
  191. Title                                    : Finnish-PGS
  192. Language                                 : Finnish
  193. Default                                  : No
  194. Forced                                   : No
  195. Text #7
  196. ID                                       : 12
  197. Format                                   : PGS
  198. Muxing mode                              : zlib
  199. Codec ID                                 : S_HDMV/PGS
  200. Codec ID/Info                            : Picture based subtitle format used on BDs/HD-DVDs
  201. Duration                                 : 1 h 28 min
  202. Bit rate                                 : 40.5 kb/s
  203. Count of elements                        : 2798
  204. Stream size                              : 25.6 MiB (0%)
  205. Title                                    : Norwegian-PGS
  206. Language                                 : Norwegian
  207. Default                                  : No
  208. Forced                                   : No
  209. Text #8
  210. ID                                       : 13
  211. Format                                   : PGS
  212. Muxing mode                              : zlib
  213. Codec ID                                 : S_HDMV/PGS
  214. Codec ID/Info                            : Picture based subtitle format used on BDs/HD-DVDs
  215. Duration                                 : 1 h 28 min
  216. Bit rate                                 : 41.2 kb/s
  217. Count of elements                        : 2776
  218. Stream size                              : 26.1 MiB (0%)
  219. Title                                    : Swedish-PGS
  220. Language                                 : Swedish
  221. Default                                  : No
  222. Forced                                   : No
  223. Text #9
  224. ID                                       : 14
  225. Format                                   : PGS
  226. Muxing mode                              : zlib
  227. Codec ID                                 : S_HDMV/PGS
  228. Codec ID/Info                            : Picture based subtitle format used on BDs/HD-DVDs
  229. Duration                                 : 1 h 8 min
  230. Bit rate                                 : 1 189 b/s
  231. Count of elements                        : 66
  232. Stream size                              : 596 KiB (0%)
  233. Title                                    : French-FORCED-PGS
  234. Language                                 : French
  235. Default                                  : No
  236. Forced                                   : No
  237. Text #10
  238. ID                                       : 15
  239. Format                                   : PGS
  240. Muxing mode                              : zlib
  241. Codec ID                                 : S_HDMV/PGS
  242. Codec ID/Info                            : Picture based subtitle format used on BDs/HD-DVDs
  243. Duration                                 : 1 h 8 min
  244. Bit rate                                 : 674 b/s
  245. Count of elements                        : 36
  246. Stream size                              : 338 KiB (0%)
  247. Title                                    : Spanish-FORCED-PGS
  248. Language                                 : Spanish
  249. Default                                  : No
  250. Forced                                   : No
  251. Text #11
  252. ID                                       : 16
  253. Format                                   : PGS
  254. Muxing mode                              : zlib
  255. Codec ID                                 : S_HDMV/PGS
  256. Codec ID/Info                            : Picture based subtitle format used on BDs/HD-DVDs
  257. Duration                                 : 1 h 12 min
  258. Bit rate                                 : 783 b/s
  259. Count of elements                        : 50
  260. Stream size                              : 418 KiB (0%)
  261. Title                                    : Swedish-FORCED-PGS
  262. Language                                 : Swedish
  263. Default                                  : No
  264. Forced                                   : No
  265. Menu
  266. 00:00:00.000                             : en:Chapter 01
  267. 00:09:28.109                             : en:Chapter 02
  268. 00:19:10.983                             : en:Chapter 03
  269. 00:26:41.725                             : en:Chapter 04
  270. 00:34:24.854                             : en:Chapter 05
  271. 00:42:01.018                             : en:Chapter 06
  272. 00:51:06.938                             : en:Chapter 07
  273. 00:59:47.750                             : en:Chapter 08
  274. 01:09:19.780                             : en:Chapter 09
  275. 01:19:26.261                             : en:Chapter 10
  276. 01:25:38.550                             : en:Chapter 11
复制代码






                                       
                                       

                                       
                                       
                                       




回复

使用道具 举报

懒得打字嘛,点击右侧快捷回复 【右侧内容,后台自定义】
您需要登录后才可以回帖 登录 | 立即加入

本版积分规则

Archiver|小黑屋| 蓝光电影网 |网站地图

Copyright © 2021 Comsenz Inc. Powered by 蓝光电影网

蓝光电影网

本站内容由用户自主分享和转载自互联网,转载目的在于传递更多信息,并不代表本网赞同其观点和对其真实性负责。

如有侵权、违反国家法律政策行为,请联系我们,我们会第一时间及时清除和处理!

举报反馈邮箱:[email protected]

快速回复 返回顶部 返回列表