找回密码

蓝光电影网

查看: 15|回复: 0

[动作] 鹳鸟迷踪 第一季 Flight.of.the.Storks.2012.1080p.BluRay.x264.DTS-FGT 6.30GB

[复制链接]
蓝光币
519
发表于 2019-8-28 01:53:49 | 显示全部楼层 |阅读模式


◎译  名 鹳鸟迷踪 第一季 / Le vol des cigognes
◎片  名 Flight of the Storks Season 1
◎年  代 2012
◎产  地 法国 / 德国 / 南非
◎类  别 行动 / 悬疑 / 犯罪
◎语  言 英语 / 法语
◎上映日期 2013-01-21
◎IMDb评分  5.3/10 from 266 users
◎IMDb链接  http://www.imdb.com/title/tt1928328
◎豆瓣评分 5.7/10 from 92 users
◎豆瓣链接 https://movie.douban.com/subject/10463016/
◎集  数 2
◎片  长 87分钟
◎导  演 扬·高能 Jan Kounen
◎编  剧 Jean-Christophe Grangé / 扬·高能 Jan Kounen / Denis McGrath
◎主  演 哈里·崔德威 Harry Treadaway
       克雷蒙斯·施伊克 Clemens Schick
       佩蒂塔·维克斯 Perdita Weeks

◎标  签 法剧 | 悬疑 | 法国 | HarryTreadaway | 2012 | Treadaway | 剧-法国 | France
◎简  介  
  一位瑞士的鸟类学家波姆因心脏病而灭亡。希奇的是,他的尸身是一个鹳鸟的巢里被发现的。虽然如此,他聘用的一位门生,乔纳森,却决议要单独完成他们的研讨:跟随迁移至非洲的鹳鸟,完全观察清楚它们其中的一部分会在迁移中消失的缘由。他的旅途从保加利亚起头,接下来便到达了以色列,最初则是目标地非洲中部。可是在旅途刚刚起头,乔纳森就堕入了关于他的曩昔的可骇梦魇当中..他手部的烧伤疤痕让他不能不想起那场莫名的变乱。在随着鹳鸟迁移的线路以及那些着落不明的钻石中,乔纳森的命运之旅就此起头...
  原著小说作者格朗热,1961年诞生于巴黎,自幼爱好文学,在巴黎索邦大学获得文学硕士学位。结业后,格朗热先在一家公司当营业员,以后在摄影报道杂志担任编辑,并随摄影师四周游历。曾去过北极、蒙古、非洲等地,获得了丰富的地理常识,也奠基了往后他小说里时空布景广宽的根本。与此同时,他爱上了推理小说。格朗热在撰写一篇有关鹳鸟迁移的报道时,发生了灵感,因而写成童贞作《鹳鸟谜踪》,并于1994年出书。
  1. Video
  2. ID                                       : 1
  3. Format                                   : AVC
  4. Format/Info                              : Advanced Video Codec
  5. Format profile                           : [email protected]
  6. Format settings, CABAC                   : Yes
  7. Format settings, ReFrames                : 5 frames
  8. Codec ID                                 : V_MPEG4/ISO/AVC
  9. Duration                                 : 2h 4mn
  10. Bit rate                                 : 5 593 Kbps
  11. Width                                    : 1 920 pixels
  12. Height                                   : 800 pixels
  13. Display aspect ratio                     : 2.40:1
  14. Frame rate mode                          : Constant
  15. Frame rate                               : 25.000 fps
  16. Color space                              : YUV
  17. Chroma subsampling                       : 4:2:0
  18. Bit depth                                : 8 bits
  19. Scan type                                : Progressive
  20. Bits/(Pixel*Frame)                       : 0.146
  21. Stream size                              : 4.86 GiB (77%)
  22. Writing library                          : x264 core 148 r2597 e86f3a1
  23. Encoding settings                        : cabac=1 / ref=5 / deblock=1:-1:-1 / analyse=0x3:0x133 / me=umh / subme=7 / psy=1 / psy_rd=1.00:0.15 / mixed_ref=1 / me_range=16 / chroma_me=1 / trellis=1 / 8x8dct=1 / cqm=0 / deadzone=21,11 / fast_pskip=0 / chroma_qp_offset=-3 / threads=8 / lookahead_threads=1 / sliced_threads=0 / nr=0 / decimate=1 / interlaced=0 / bluray_compat=0 / constrained_intra=0 / bframes=3 / b_pyramid=2 / b_adapt=1 / b_bias=0 / direct=1 / weightb=1 / open_gop=0 / weightp=2 / keyint=250 / keyint_min=25 / scenecut=40 / intra_refresh=0 / rc_lookahead=40 / rc=crf / mbtree=1 / crf=20.0 / qcomp=0.60 / qpmin=0 / qpmax=69 / qpstep=4 / ip_ratio=1.40 / aq=1:1.00
  24. Default                                  : Yes
  25. Forced                                   : No
  26. Audio
  27. ID                                       : 2
  28. Format                                   : DTS
  29. Format/Info                              : Digital Theater Systems
  30. Mode                                     : 16
  31. Format settings, Endianness              : Big
  32. Codec ID                                 : A_DTS
  33. Duration                                 : 2h 4mn
  34. Bit rate mode                            : Constant
  35. Bit rate                                 : 1 509 Kbps
  36. Channel(s)                               : 6 channels
  37. Channel positions                        : Front: L C R, Side: L R, LFE
  38. Sampling rate                            : 48.0 KHz
  39. Frame rate                               : 93.750 fps (512 spf)
  40. Bit depth                                : 16 bits
  41. Compression mode                         : Lossy
  42. Stream size                              : 1.31 GiB (21%)
  43. Language                                 : English
  44. Default                                  : No
  45. Forced                                   : No
  46. Menu
  47. 00:00:00.000                             : en:00:00:00.000
  48. 00:10:30.320                             : en:00:10:30.320
  49. 00:22:07.520                             : en:00:22:07.520
  50. 00:31:44.000                             : en:00:31:44.000
  51. 00:41:57.520                             : en:00:41:57.520
  52. 00:52:09.080                             : en:00:52:09.080
  53. 00:59:46.840                             : en:00:59:46.840
  54. 01:11:31.040                             : en:01:11:31.040
  55. 01:22:25.160                             : en:01:22:25.160
  56. 01:35:05.880                             : en:01:35:05.880
  57. 01:47:54.760                             : en:01:47:54.760
  58. 02:00:06.000                             : en:02:00:06.000
复制代码









                                       
                                       

                                       
                                       
                                       




回复

使用道具 举报

懒得打字嘛,点击右侧快捷回复 【右侧内容,后台自定义】
您需要登录后才可以回帖 登录 | 立即加入

本版积分规则

Archiver|小黑屋| 蓝光电影网 |网站地图

Copyright © 2021 Comsenz Inc. Powered by 蓝光电影网

蓝光电影网

本站内容由用户自主分享和转载自互联网,转载目的在于传递更多信息,并不代表本网赞同其观点和对其真实性负责。

如有侵权、违反国家法律政策行为,请联系我们,我们会第一时间及时清除和处理!

举报反馈邮箱:[email protected]

快速回复 返回顶部 返回列表