找回密码

蓝光电影网

查看: 13|回复: 0

[其他] 亚特兰蒂斯/亚特兰提斯 Atlantis.1991.1080p.BluRay.x264-AVCHD 7.96GB

[复制链接]
蓝光币
511
发表于 2020-10-4 08:39:50 | 显示全部楼层 |阅读模式


◎译  名 亚特兰蒂斯/亚特兰提斯
◎片  名 Atlantis
◎年  代 1991
◎产  地 法国,意大利
◎类  别 记载片 / 音乐
◎语  言 法语
◎上映日期 1991-08-21(法国)
◎IMDb评分  6.7/10 from 1735 users
◎IMDb链接  https://www.imdb.com/title/tt0101376/
◎豆瓣评分 8.1/10 from 2121 users
◎豆瓣链接 https://movie.douban.com/subject/1292582/
◎片  长 78 分钟
◎导  演 吕克·贝松 Luc Besson
◎标  签 记载片 | 吕克·贝松 | 法国 | 法国电影 | LucBesson | 吕克贝松 | Atlantis | 1991
◎简  介


  剧情梗概:
  
  此片无演员,只要旁白,这部影片将率领影迷进入美丽的海底天下,配上美好的音乐,以音画来表示分歧的生活面孔与心灵层面。我们将可看到海底在日出与日落之间的奇异变化与景观,吕克·贝松设定了几个主题来描画"海底的一天",主题包括有"心里"、"旋律"、"悸动"、"灵魂"、"黑暗"、"心灵"、"温柔"、"爱"最初是"恨"。全片在海底拍摄,动物是片中唯一的演员。海蓝色是此片的主色彩。配上赛拉的奥妙乐音,吕克·贝松将更完整地显现大海所孕函的丰富色彩……
  
  说明:
  
  此片是1991年威尼斯影展的开幕大片。亚特兰提斯是传闻中一片被沉没的奥秘陆地,位于大西洋底下。吕克·贝松想要证实海底下的天下,也有一个核我们社会一样的构造。也许也可以说"亚特兰提斯"是"碧海蓝天"衍伸出来的副命题。此片是吕克·贝松摒弃传统拍摄手法的作品,一部纯视觉享用的电影,没有传统剧本,没有人类对话,只要音画慎密连系,完全依靠吕克·贝松与配乐师艾瑞克赛拉配合研议剧本。吕克·贝松以动物间的求爱,群斗,追逐等排场来丰富剧情,拍片萍踪遍及天下各地海域,包括有苏格兰,澳大利亚,大洋洲,哥伦比亚,佛罗里达,巴拿马群岛等海域,甚至北极极地海域的冰雪景观或多方战真个红海海域。吕克·贝松以为这是他最初一部会商有关陆地的影片。这也是一部布满环保认识的影片,全片只要悠游大海的鱼,毫无人影,是吕克·贝松又一次冒险之大不讳之作。
  1. Video
  2. ID                                       : 1
  3. Format                                   : AVC
  4. Format/Info                              : Advanced Video Codec
  5. Format profile                           : [email protected]
  6. Format settings                          : CABAC / 5 Ref Frames
  7. Format settings, CABAC                   : Yes
  8. Format settings, Reference frames        : 5 frames
  9. Codec ID                                 : V_MPEG4/ISO/AVC
  10. Duration                                 : 1 h 19 min
  11. Bit rate                                 : 13.9 Mb/s
  12. Width                                    : 1 920 pixels
  13. Height                                   : 816 pixels
  14. Display aspect ratio                     : 2.35:1
  15. Frame rate mode                          : Constant
  16. Frame rate                               : 24.000 FPS
  17. Color space                              : YUV
  18. Chroma subsampling                       : 4:2:0
  19. Bit depth                                : 8 bits
  20. Scan type                                : Progressive
  21. Bits/(Pixel*Frame)                       : 0.370
  22. Stream size                              : 7.55 GiB (95%)
  23. Writing library                          : x264 core 75 r1259 dd026f2
  24. Encoding settings                        : cabac=1 / ref=5 / deblock=1:0:0 / analyse=0x3:0x133 / me=umh / subme=7 / psy=1 / psy_rd=1.0:0.0 / mixed_ref=1 / me_range=16 / chroma_me=1 / trellis=1 / 8x8dct=1 / cqm=0 / deadzone=21,11 / chroma_qp_offset=-2 / threads=6 / nr=0 / decimate=1 / mbaff=0 / bframes=3 / b_pyramid=0 / b_adapt=1 / b_bias=0 / direct=1 / wpredb=1 / keyint=250 / keyint_min=25 / scenecut=40 / rc_lookahead=40 / rc=2pass / mbtree=1 / bitrate=13919 / ratetol=1.0 / qcomp=0.60 / qpmin=10 / qpmax=51 / qpstep=4 / cplxblur=20.0 / qblur=0.5 / ip_ratio=1.40 / aq=1:1.00
  25. Language                                 : English
  26. Default                                  : No
  27. Forced                                   : No

  28. Audio
  29. ID                                       : 2
  30. Format                                   : AC-3
  31. Format/Info                              : Audio Coding 3
  32. Commercial name                          : Dolby Digital
  33. Codec ID                                 : A_AC3
  34. Duration                                 : 1 h 19 min
  35. Bit rate mode                            : Constant
  36. Bit rate                                 : 448 kb/s
  37. Channel(s)                               : 2 channels
  38. Channel layout                           : L R
  39. Sampling rate                            : 48.0 kHz
  40. Frame rate                               : 31.250 FPS (1536 SPF)
  41. Compression mode                         : Lossy
  42. Stream size                              : 254 MiB (3%)
  43. Language                                 : Finnish
  44. Service kind                             : Complete Main
  45. Default                                  : Yes
  46. Forced                                   : No

  47. Text
  48. ID                                       : 3
  49. Format                                   : UTF-8
  50. Codec ID                                 : S_TEXT/UTF8
  51. Codec ID/Info                            : UTF-8 Plain Text
  52. Language                                 : English
  53. Default                                  : Yes
  54. Forced                                   : No
复制代码









                                       
                                       

                                       
                                       
                                       




回复

使用道具 举报

懒得打字嘛,点击右侧快捷回复 【右侧内容,后台自定义】
您需要登录后才可以回帖 登录 | 立即加入

本版积分规则

Archiver|小黑屋| 蓝光电影网 |网站地图

Copyright © 2021 Comsenz Inc. Powered by 蓝光电影网

蓝光电影网

本站内容由用户自主分享和转载自互联网,转载目的在于传递更多信息,并不代表本网赞同其观点和对其真实性负责。

如有侵权、违反国家法律政策行为,请联系我们,我们会第一时间及时清除和处理!

举报反馈邮箱:[email protected]

快速回复 返回顶部 返回列表