找回密码

蓝光电影网

查看: 16|回复: 0

[动作] 第一滴血4 Rambo.2008.EXTENDED.1080p.BluRay.x264.DTS-HD.MA.7.1-SWTYBLZ 13.26GB

[复制链接]
蓝光币
509
发表于 2019-8-27 05:57:45 | 显示全部楼层 |阅读模式


◎译  名 第一滴血4 / John Rambo / RAMBO 热血回归 / Rambo IV / Rambo The Fight Continues / 兰博4 / 第四滴血
◎片  名 Rambo
◎年  代 2008
◎产  地 美国 / 德国
◎类  别 行动 / 惊悚
◎语  言 英语 / 缅甸语 / 泰语
◎上映日期 2008-01-25(美国)
◎IMDb评分  7.0/10 from 203587 users
◎IMDb链接  http://www.imdb.com/title/tt0462499
◎豆瓣评分 7.3/10 from 32676 users
◎豆瓣链接 https://movie.douban.com/subject/1440855/
◎片  长 92分钟
◎导  演 Sylvester Stallone
◎编  剧 Art Monterastelli / Sylvester Stallone / David Morrell
◎主  演 西尔维斯特·史泰龙 Sylvester Stallone
       朱莉·本茨 Julie Benz
       马修·马斯登 Matthew Marsden
       Graham McTavish
       Reynaldo Gallegos

◎标  签 行动 | 史泰龙 | 美国 | 战争 | 美国电影 | Rambo | 2008 | 兰博4
◎简  介  
  军政府统治下的缅甸,其西部由于包含丰富资本而被军队觊觎多年,那边的儿童经常被军队强征参军,针对平民的屠杀已经成了部分甲士的文娱……一支教会义工小队为了进入该地域向难民供给人性主义帮助,在泰国找到了隐居的兰博(西尔维斯特?史泰龙 Sylvester Stallone 饰),希望熟悉河流的后者供给帮助。兰博以为时势没有改变的能够,拒绝领路,但终被义工莎拉(Julie Benz 饰)的诚意感动,将他们投递。
  岂料这支义工小队在村落中遭到军队的攻击,生还者全数被掳走。教会得悉义工们身陷险境,构造雇佣军救援,并再次拜托兰博领路,这一次,兰博的态度发生了改变,他率领雇佣兵们潜入缅甸军营,又一次化身热血战士。
  1. Video
  2. ID                                       : 1
  3. Format                                   : AVC
  4. Format/Info                              : Advanced Video Codec
  5. Format profile                           : [email protected]
  6. Format settings                          : CABAC / 5 Ref Frames
  7. Format settings, CABAC                   : Yes
  8. Format settings, Reference frames        : 5 frames
  9. Codec ID                                 : V_MPEG4/ISO/AVC
  10. Duration                                 : 1 h 39 min
  11. Bit rate                                 : 14.2 Mb/s
  12. Width                                    : 1 920 pixels
  13. Height                                   : 816 pixels
  14. Display aspect ratio                     : 2.35:1
  15. Frame rate mode                          : Constant
  16. Frame rate                               : 23.976 (24000/1001) FPS
  17. Color space                              : YUV
  18. Chroma subsampling                       : 4:2:0
  19. Bit depth                                : 8 bits
  20. Scan type                                : Progressive
  21. Bits/(Pixel*Frame)                       : 0.378
  22. Stream size                              : 9.84 GiB (74%)
  23. Title                                    : Rambo.2008.EXTENDED.1080p.BluRay.x264.DTS-HD.MA.7.1-SWTYBLZ
  24. Writing library                          : x264 core 157 r2935 545de2f
  25. Encoding settings                        : cabac=1 / ref=5 / deblock=1:-1:-1 / analyse=0x3:0x133 / me=umh / subme=10 / psy=1 / psy_rd=1.00:0.15 / mixed_ref=1 / me_range=48 / chroma_me=1 / trellis=2 / 8x8dct=1 / cqm=0 / deadzone=21,11 / fast_pskip=1 / chroma_qp_offset=-3 / threads=25 / lookahead_threads=4 / sliced_threads=0 / nr=0 / decimate=0 / interlaced=0 / bluray_compat=0 / constrained_intra=0 / bframes=8 / b_pyramid=2 / b_adapt=2 / b_bias=0 / direct=3 / weightb=1 / open_gop=0 / weightp=2 / keyint=250 / keyint_min=23 / scenecut=40 / intra_refresh=0 / rc_lookahead=60 / rc=crf / mbtree=1 / crf=17.0 / qcomp=0.60 / qpmin=0 / qpmax=69 / qpstep=4 / ip_ratio=1.40 / aq=1:1.00
  26. Default                                  : Yes
  27. Forced                                   : No
  28. Audio
  29. ID                                       : 2
  30. Format                                   : DTS XLL
  31. Format/Info                              : Digital Theater Systems
  32. Commercial name                          : DTS-HD Master Audio
  33. Codec ID                                 : A_DTS
  34. Duration                                 : 1 h 39 min
  35. Bit rate mode                            : Variable
  36. Bit rate                                 : 4 915 kb/s
  37. Channel(s)                               : 8 channels
  38. Channel layout                           : C L R LFE Lb Rb Lss Rss
  39. Sampling rate                            : 48.0 kHz
  40. Frame rate                               : 93.750 FPS (512 SPF)
  41. Bit depth                                : 24 bits
  42. Compression mode                         : Lossless
  43. Stream size                              : 3.41 GiB (26%)
  44. Title                                    : Rambo.2008.EXTENDED.1080p.BluRay.x264.DTS-HD.MA.7.1-SWTYBLZ
  45. Language                                 : English
  46. Default                                  : Yes
  47. Forced                                   : No
  48. Text #1
  49. ID                                       : 3
  50. Format                                   : UTF-8
  51. Codec ID                                 : S_TEXT/UTF8
  52. Codec ID/Info                            : UTF-8 Plain Text
  53. Duration                                 : 1 h 25 min
  54. Bit rate                                 : 29 b/s
  55. Count of elements                        : 562
  56. Stream size                              : 18.3 KiB (0%)
  57. Title                                    : English-SRT
  58. Language                                 : English
  59. Default                                  : Yes
  60. Forced                                   : No
  61. Text #2
  62. ID                                       : 4
  63. Format                                   : PGS
  64. Muxing mode                              : zlib
  65. Codec ID                                 : S_HDMV/PGS
  66. Codec ID/Info                            : Picture based subtitle format used on BDs/HD-DVDs
  67. Duration                                 : 1 h 25 min
  68. Bit rate                                 : 19.1 kb/s
  69. Count of elements                        : 1124
  70. Stream size                              : 11.7 MiB (0%)
  71. Title                                    : English-PGS
  72. Language                                 : English
  73. Default                                  : No
  74. Forced                                   : No
  75. Text #3
  76. ID                                       : 5
  77. Format                                   : PGS
  78. Muxing mode                              : zlib
  79. Codec ID                                 : S_HDMV/PGS
  80. Codec ID/Info                            : Picture based subtitle format used on BDs/HD-DVDs
  81. Duration                                 : 1 h 25 min
  82. Bit rate                                 : 23.1 kb/s
  83. Count of elements                        : 1426
  84. Stream size                              : 14.1 MiB (0%)
  85. Title                                    : English-PGS
  86. Language                                 : English
  87. Default                                  : No
  88. Forced                                   : No
  89. Text #4
  90. ID                                       : 6
  91. Format                                   : PGS
  92. Muxing mode                              : zlib
  93. Codec ID                                 : S_HDMV/PGS
  94. Codec ID/Info                            : Picture based subtitle format used on BDs/HD-DVDs
  95. Duration                                 : 1 h 25 min
  96. Bit rate                                 : 19.3 kb/s
  97. Count of elements                        : 1320
  98. Stream size                              : 11.8 MiB (0%)
  99. Title                                    : Spanish-PGS
  100. Language                                 : Spanish
  101. Default                                  : No
  102. Forced                                   : No
  103. Menu
  104. 00:00:00.000                             : en:Chapter 01
  105. 00:06:04.573                             : en:Chapter 02
  106. 00:11:33.651                             : en:Chapter 03
  107. 00:22:41.735                             : en:Chapter 04
  108. 00:28:31.376                             : en:Chapter 05
  109. 00:33:17.621                             : en:Chapter 06
  110. 00:42:32.216                             : en:Chapter 07
  111. 00:47:26.135                             : en:Chapter 08
  112. 00:52:06.999                             : en:Chapter 09
  113. 00:59:18.013                             : en:Chapter 10
  114. 01:03:30.849                             : en:Chapter 11
  115. 01:08:03.246                             : en:Chapter 12
  116. 01:13:43.461                             : en:Chapter 13
  117. 01:19:02.529                             : en:Chapter 14
  118. 01:24:37.239                             : en:Chapter 15
  119. 01:27:17.232                             : en:Chapter 16
复制代码






                                       
                                       

                                       
                                       
                                       




回复

使用道具 举报

懒得打字嘛,点击右侧快捷回复 【右侧内容,后台自定义】
您需要登录后才可以回帖 登录 | 立即加入

本版积分规则

Archiver|小黑屋| 蓝光电影网 |网站地图

Copyright © 2021 Comsenz Inc. Powered by 蓝光电影网

蓝光电影网

本站内容由用户自主分享和转载自互联网,转载目的在于传递更多信息,并不代表本网赞同其观点和对其真实性负责。

如有侵权、违反国家法律政策行为,请联系我们,我们会第一时间及时清除和处理!

举报反馈邮箱:[email protected]

快速回复 返回顶部 返回列表