找回密码

蓝光电影网

查看: 13|回复: 0

[喜剧] 英雄归来 Return.Of.The.Hero.2018.FRENCH.1080p.BluRay.x264-HANDJOB 7.65GB

[复制链接]
蓝光币
511
发表于 2020-11-24 09:05:21 | 显示全部楼层 |阅读模式


◎译  名 豪杰归来/Return of the Hero/假掰豪杰(台)
◎片  名 Le retour du héros
◎年  代 2018
◎产  地 法国
◎类  别 笑剧 / 历史
◎语  言 法语
◎上映日期 2018-02-14(法国)
◎IMDb评分  6.5/10 from 3246 users
◎IMDb链接  https://www.imdb.com/title/tt7064498/
◎豆瓣评分 6.9/10 from 1380 users
◎豆瓣链接 https://movie.douban.com/subject/27084627/
◎片  长 90分钟
◎导  演 洛朗·蒂拉尔 Laurent Tirard
◎编  剧 洛朗·蒂拉尔 Laurent Tirard / 格雷古瓦·维涅隆 Grégoire Vigneron
◎主  演 让·杜雅尔丹 Jean Dujardin
       梅拉尼·罗兰 Mélanie Laurent
       诺米·梅兰特 Noémie Merlant
       费奥多尔·阿特金 Féodor Atkine
       洛朗·巴图 Laurent Bateau
       让-米歇尔·拉米 Jean-Michel Lahmi
       埃弗琳·布尔 Evelyne Buyle
       Guillaume Denaiffe
       奥黛丽·欧塔维阿诺 Audrey Ottaviano
◎标  签 法国 | 笑剧 | 2018 | 黑色诙谐 | 历史 | 古装 | 逃兵 | 搞笑
◎简  介


  装腔作势的纽维尔将军在成婚前夜收到徵召令要他重回疆场,他跟未婚妻宝琳约定会写信报平安,可是说好的信一向没来,眼看宝琳相思氾滥成灾,她姐姐伊莉莎白只好假扮纽维尔写信抚慰妹妹,而信中诬捏的勇敢事蹟,看得宝琳兴高采烈四周放送,让纽维尔酿成了传奇豪杰。一转眼3年曩昔,就当大师都以为他已为国牺牲时,「大豪杰」返来了!伊莉莎白做梦也没想到自己居然成了让他背井离乡的推手,是以处处跟他作对;而实在是逃兵怯夫的纽维尔意外「重获新生」,也沉醉于众人对他的敬慕,死命地要让这个大话不被拆穿,到底纽维尔这个「豪杰」能当到什麽时辰?!
  1. Video
  2. ID                                       : 1
  3. Format                                   : AVC
  4. Format/Info                              : Advanced Video Codec
  5. Format profile                           : [email protected]
  6. Format settings                          : CABAC / 5 Ref Frames
  7. Format settings, CABAC                   : Yes
  8. Format settings, Reference frames        : 5 frames
  9. Codec ID                                 : V_MPEG4/ISO/AVC
  10. Duration                                 : 1 h 30 min
  11. Bit rate                                 : 11.5 Mb/s
  12. Width                                    : 1 920 pixels
  13. Height                                   : 800 pixels
  14. Display aspect ratio                     : 2.40:1
  15. Frame rate mode                          : Constant
  16. Frame rate                               : 23.976 (24000/1001/189150) FPS
  17. Color space                              : YUV
  18. Chroma subsampling                       : 4:2:0
  19. Bit depth                                : 8 bits
  20. Scan type                                : Progressive
  21. Bits/(Pixel*Frame)                       : 0.311
  22. Stream size                              : 7.24 GiB (95%)
  23. Writing library                          : x264 core 157 r2935 545de2f
  24. Encoding settings                        : cabac=1 / ref=5 / deblock=1:-3:-3 / analyse=0x3:0x133 / me=umh / subme=10 / psy=1 / psy_rd=1.00:0.00 / mixed_ref=1 / me_range=32 / chroma_me=1 / trellis=2 / 8x8dct=1 / cqm=0 / deadzone=21,11 / fast_pskip=0 / chroma_qp_offset=-2 / threads=25 / lookahead_threads=6 / sliced_threads=0 / nr=0 / decimate=0 / interlaced=0 / bluray_compat=0 / constrained_intra=0 / bframes=16 / b_pyramid=2 / b_adapt=2 / b_bias=0 / direct=3 / weightb=1 / open_gop=0 / weightp=2 / keyint=240 / keyint_min=24 / scenecut=40 / intra_refresh=0 / rc_lookahead=60 / rc=crf / mbtree=0 / crf=19.2 / qcomp=0.60 / qpmin=0 / qpmax=69 / qpstep=4 / vbv_maxrate=62500 / vbv_bufsize=78125 / crf_max=0.0 / nal_hrd=none / filler=0 / ip_ratio=1.40 / pb_ratio=1.30 / aq=2:1.00
  25. Language                                 : French
  26. Default                                  : Yes
  27. Forced                                   : No
  28. Color range                              : Limited
  29. Color primaries                          : BT.709
  30. Transfer characteristics                 : BT.709
  31. Matrix coefficients                      : BT.709
  32. Audio
  33. ID                                       : 2
  34. Format                                   : AC-3
  35. Format/Info                              : Audio Coding 3
  36. Commercial name                          : Dolby Digital
  37. Codec ID                                 : A_AC3
  38. Duration                                 : 1 h 30 min
  39. Bit rate mode                            : Constant
  40. Bit rate                                 : 640 kb/s
  41. Channel(s)                               : 6 channels
  42. Channel layout                           : L R C LFE Ls Rs
  43. Sampling rate                            : 48.0 kHz
  44. Frame rate                               : 31.250 FPS (1536 SPF)
  45. Compression mode                         : Lossy
  46. Stream size                              : 414 MiB (5%)
  47. Language                                 : French
  48. Service kind                             : Complete Main
  49. Default                                  : Yes
  50. Forced                                   : No
  51. Text #1
  52. ID                                       : 3
  53. Format                                   : UTF-8
  54. Codec ID                                 : S_TEXT/UTF8
  55. Codec ID/Info                            : UTF-8 Plain Text
  56. Duration                                 : 1 h 24 min
  57. Bit rate                                 : 58 b/s
  58. Count of elements                        : 1213
  59. Stream size                              : 36.0 KiB (0%)
  60. Language                                 : English
  61. Default                                  : Yes
  62. Forced                                   : No
  63. Text #2
  64. ID                                       : 4
  65. Format                                   : PGS
  66. Muxing mode                              : zlib
  67. Codec ID                                 : S_HDMV/PGS
  68. Codec ID/Info                            : Picture based subtitle format used on BDs/HD-DVDs
  69. Duration                                 : 1 h 29 min
  70. Bit rate                                 : 34.8 kb/s
  71. Count of elements                        : 3228
  72. Stream size                              : 22.4 MiB (0%)
  73. Language                                 : French
  74. Default                                  : No
  75. Forced                                   : No
  76. Menu
  77. 00:00:00.000                             : :Chapter 1
  78. 00:07:07.135                             : :Chapter 2
  79. 00:13:16.796                             : :Chapter 3
  80. 00:20:12.044                             : :Chapter 4
  81. 00:30:44.926                             : :Chapter 5
  82. 00:38:53.373                             : :Chapter 6
  83. 00:45:36.067                             : :Chapter 7
  84. 00:51:48.564                             : :Chapter 8
  85. 00:58:30.674                             : :Chapter 9
  86. 01:07:29.921                             : :Chapter 10
  87. 01:17:00.699                             : :Chapter 11
  88. 01:26:04.159                             : :Chapter 12
复制代码






                                       
                                       

                                       
                                       
                                       




回复

使用道具 举报

懒得打字嘛,点击右侧快捷回复 【右侧内容,后台自定义】
您需要登录后才可以回帖 登录 | 立即加入

本版积分规则

Archiver|小黑屋| 蓝光电影网 |网站地图

Copyright © 2021 Comsenz Inc. Powered by 蓝光电影网

蓝光电影网

本站内容由用户自主分享和转载自互联网,转载目的在于传递更多信息,并不代表本网赞同其观点和对其真实性负责。

如有侵权、违反国家法律政策行为,请联系我们,我们会第一时间及时清除和处理!

举报反馈邮箱:[email protected]

快速回复 返回顶部 返回列表