找回密码

蓝光电影网

查看: 14|回复: 0

[剧情] 煤气灯下/瓦斯灯下 Gaslight.1944.1080p.BluRay.REMUX.AVC.DTS-HD.MA.2.0-FGT 29.35GB

[复制链接]
蓝光币
511
发表于 2019-6-27 18:43:34 | 显示全部楼层 |阅读模式


◎译  名 煤气灯下 / 瓦斯灯下
◎片  名 Gaslight
◎年  代 1944
◎产  地 美国
◎类  别 剧情 / 犯罪 / 黑色电影
◎语  言 英语
◎上映日期 1944-05-11(美国)
◎IMDb评分  7.8/10 from 21074 users
◎IMDb链接  http://www.imdb.com/title/tt0036855
◎豆瓣评分 8.2/10 from 4078 users
◎豆瓣链接 https://movie.douban.com/subject/1296845/
◎片  长 114分钟
◎导  演 乔治·库克 George Cukor
◎编  剧 约翰·范·德鲁登 John Van Druten / 沃尔特·瑞奇 Walter Reisch / 约翰·L·鲍尔德斯顿 John L. Balderston / 帕特里克·汉密尔顿 Patrick Hamilton
◎主  演 查尔斯·博耶 Charles Boyer
      英格丽·褒曼 Ingrid Bergman
      约瑟夫·科顿 Joseph Cotten
      梅·惠蒂 Dame May Whitty
      安吉拉·兰斯伯瑞 Angela Lansbury
      Barbara Everest
      Emil Rameau
      Edmund Breon
      哈利韦尔·霍布斯 Halliwell Hobbes
      Tom Stevenson
      Heather Thatcher
      Lawrence Grossmith
      Jakob Gimpel

◎标  签 悬疑 | 美国 | 英格丽·褒曼 | 黑白 | 典范 | 美国电影 | 希区柯克 | IngridBergman
◎简  介  
  姑母意外灭亡,给美丽、善良的少女宝拉(英格丽·褒曼 Ingrid Bergman 饰)留下大笔遗产,引来心术不正的青年安东(查尔斯·博耶 Charles Boyer 饰)觊觎。追求宝拉成功后,二人回到宝拉姑母已经遇害的伦敦旧宅居住。本以为就此具有完善丈夫和幸运生活的宝拉,逐步遭到怪僻现象困扰,她总会听到希奇的响声,工具经常稀里糊涂消失又出现,新来的女仆也对她态度藐视,煤气灯也起头忽明忽暗,安东暗示一切都是宝拉自己的幻觉,是宝拉的精神出现了题目。就在宝拉渐渐心了解体,接近发狂的边沿,一个年轻的侦察伯林(约瑟夫·科顿 Joseph Cotten 饰)出现了,他发现宝拉正在被孤立,背后的胁从正是她的完善丈夫……
◎获奖情况  
  第17届奥斯卡金像奖(1945)
  最好影片(提名)
  最好男配角(提名) 查尔斯·博耶
  最好女配角 英格丽·褒曼
  最好女配角(提名) 安吉拉·兰斯伯瑞
  最好编剧(提名) 沃尔特·瑞奇 / 约翰·L·鲍尔德斯顿 / 约翰·范·德鲁登
  黑白片最好摄影(提名) Joseph Ruttenberg
  黑白片最好艺术指导和室内布景 埃德温·B·威利斯 / Paul Huldschinsky / William Ferrari / 塞德里克·吉本森
  第1届戛纳电影节(1946)
  主比赛单元(提名) 乔治·库克
  第2届金球奖(1945)
  电影类 最好女配角 英格丽·褒曼

  1. Video
  2. ID                                       : 1
  3. Format                                   : AVC
  4. Format/Info                              : Advanced Video Codec
  5. Format profile                           : [email protected]
  6. Format settings                          : CABAC / 4 Ref Frames
  7. Format settings, CABAC                   : Yes
  8. Format settings, ReFrames                : 4 frames
  9. Codec ID                                 : V_MPEG4/ISO/AVC
  10. Duration                                 : 1 h 53 min
  11. Bit rate mode                            : Variable
  12. Bit rate                                 : 34.9 Mb/s
  13. Maximum bit rate                         : 38.0 Mb/s
  14. Width                                    : 1 920 pixels
  15. Height                                   : 1 080 pixels
  16. Display aspect ratio                     : 16:9
  17. Frame rate mode                          : Constant
  18. Frame rate                               : 23.976 (24000/1001) FPS
  19. Color space                              : YUV
  20. Chroma subsampling                       : 4:2:0
  21. Bit depth                                : 8 bits
  22. Scan type                                : Progressive
  23. Bits/(Pixel*Frame)                       : 0.702
  24. Stream size                              : 27.7 GiB (94%)
  25. Title                                    : Gaslight.1944.1080p.BluRay.REMUX.AVC.DTS-HD.MA.2.0-FGT
  26. Language                                 : English
  27. Default                                  : No
  28. Forced                                   : No
  29. Audio
  30. ID                                       : 2
  31. Format                                   : DTS XLL
  32. Format/Info                              : Digital Theater Systems
  33. Commercial name                          : DTS-HD Master Audio
  34. Codec ID                                 : A_DTS
  35. Duration                                 : 1 h 53 min
  36. Bit rate mode                            : Variable
  37. Bit rate                                 : 1 966 kb/s
  38. Channel(s)                               : 2 channels
  39. Channel layout                           : L R
  40. Sampling rate                            : 48.0 kHz
  41. Frame rate                               : 93.750 FPS (512 SPF)
  42. Bit depth                                : 24 bits
  43. Compression mode                         : Lossless
  44. Stream size                              : 1.56 GiB (5%)
  45. Title                                    : Gaslight.1944.1080p.BluRay.REMUX.AVC.DTS-HD.MA.2.0-FGT
  46. Language                                 : English
  47. Default                                  : Yes
  48. Forced                                   : No
  49. Text
  50. ID                                       : 3
  51. Format                                   : PGS
  52. Muxing mode                              : zlib
  53. Codec ID                                 : S_HDMV/PGS
  54. Codec ID/Info                            : Picture based subtitle format used on BDs/HD-DVDs
  55. Duration                                 : 1 h 51 min
  56. Bit rate                                 : 113 kb/s
  57. Count of elements                        : 4372
  58. Stream size                              : 89.7 MiB (0%)
  59. Title                                    : English-PGS
  60. Language                                 : English
  61. Default                                  : Yes
  62. Forced                                   : No
  63. Menu
  64. 00:00:00.000                             : en:Chapter 01
  65. 00:01:13.156                             : en:Chapter 02
  66. 00:03:02.932                             : en:Chapter 03
  67. 00:08:19.749                             : en:Chapter 04
  68. 00:11:21.222                             : en:Chapter 05
  69. 00:15:44.902                             : en:Chapter 06
  70. 00:21:13.021                             : en:Chapter 07
  71. 00:23:53.348                             : en:Chapter 08
  72. 00:26:47.314                             : en:Chapter 09
  73. 00:28:52.230                             : en:Chapter 10
  74. 00:32:56.724                             : en:Chapter 11
  75. 00:36:53.044                             : en:Chapter 12
  76. 00:39:23.569                             : en:Chapter 13
  77. 00:43:01.579                             : en:Chapter 14
  78. 00:47:08.492                             : en:Chapter 15
  79. 00:48:58.310                             : en:Chapter 16
  80. 00:51:23.121                             : en:Chapter 17
  81. 00:56:41.981                             : en:Chapter 18
  82. 01:01:01.324                             : en:Chapter 19
  83. 01:05:48.361                             : en:Chapter 20
  84. 01:09:14.191                             : en:Chapter 21
  85. 01:12:18.625                             : en:Chapter 22
  86. 01:16:29.876                             : en:Chapter 23
  87. 01:19:14.916                             : en:Chapter 24
  88. 01:22:11.426                             : en:Chapter 25
  89. 01:25:19.697                             : en:Chapter 26
  90. 01:30:54.782                             : en:Chapter 27
  91. 01:34:50.142                             : en:Chapter 28
  92. 01:37:17.915                             : en:Chapter 29
  93. 01:43:10.184                             : en:Chapter 30
  94. 01:46:30.258                             : en:Chapter 31
  95. 01:51:24.719                             : en:Chapter 32
  96. 01:53:14.537                             : en:Chapter 33
复制代码






                                       
                                       

                                       
                                       
                                       




回复

使用道具 举报

懒得打字嘛,点击右侧快捷回复 【右侧内容,后台自定义】
您需要登录后才可以回帖 登录 | 立即加入

本版积分规则

Archiver|小黑屋| 蓝光电影网 |网站地图

Copyright © 2021 Comsenz Inc. Powered by 蓝光电影网

蓝光电影网

本站内容由用户自主分享和转载自互联网,转载目的在于传递更多信息,并不代表本网赞同其观点和对其真实性负责。

如有侵权、违反国家法律政策行为,请联系我们,我们会第一时间及时清除和处理!

举报反馈邮箱:[email protected]

快速回复 返回顶部 返回列表