找回密码

蓝光电影网

查看: 28|回复: 0

[喜剧] 准备好了吗 Ready.or.Not.2009.1080p.BluRay.x264.DTS-FGT 5.63GB

[复制链接]
蓝光币
519
发表于 2020-11-24 09:02:51 | 显示全部楼层 |阅读模式


◎译  名 预备好了吗
◎片  名 ready or not
◎年  代 2009
◎产  地 美国
◎类  别 笑剧
◎语  言 英语
◎上映日期 
◎IMDb评分  4.7/10 from 874 users
◎IMDb链接  https://www.imdb.com/title/tt0892094/
◎豆瓣评分 /10 from 0 users
◎豆瓣链接 https://movie.douban.com/subject/3611494/
◎片  长 88 分钟
◎导  演 Sean Doyle
◎编  剧 Sean Doyle / 克里斯蒂安·奥列佛 Christian Oliver
◎主  演 克里斯蒂安·奥列佛 Christian Oliver
       希穆斯·德维 Seamus Dever
       乔纳森·墨菲 Jonathan Murphy
       阿历克斯·罗克 Alex Rocco
       费尔南达·罗梅罗 Fernanda Romero
       史蒂夫·雷尔斯巴克 Steve Railsback
       欧德莎·雷 Odessa Rae
       马尔科·罗德里格斯 Marco Rodríguez
       乔尔迪·维拉斯索 Jordi Vilasuso
       雷·圣蒂亚戈 Ray Santiago
       安德丽·博加特 Andrea Bogart
       珍妮特·洛佩兹 Janet Lopez
       莱奥波尔多·帕切科 Leopoldo Pacheco
       Jessika Fuhrmaneck
       Cindy Vela
◎标  签 美国 | 恋爱 | 浪漫 | 笑剧 | 人生
◎简  介


  四个大门生过着他们的冒险生活,在一个上午举行的拉斯维加斯学士结业仪式后,身无分文的他们被困在了墨西哥,被追债,却又坠入爱河,他们必须在婚礼之前挣扎着度过这窘境。
  1. Video
  2. ID                                       : 1
  3. Format                                   : AVC
  4. Format/Info                              : Advanced Video Codec
  5. Format profile                           : [email protected]
  6. Format settings, CABAC                   : Yes
  7. Format settings, ReFrames                : 4 frames
  8. Codec ID                                 : V_MPEG4/ISO/AVC
  9. Duration                                 : 1h 28mn
  10. Bit rate                                 : 7 675 Kbps
  11. Width                                    : 1 920 pixels
  12. Height                                   : 1 080 pixels
  13. Display aspect ratio                     : 16:9
  14. Frame rate mode                          : Constant
  15. Frame rate                               : 23.976 (24000/1001) fps
  16. Color space                              : YUV
  17. Chroma subsampling                       : 4:2:0
  18. Bit depth                                : 8 bits
  19. Scan type                                : Progressive
  20. Bits/(Pixel*Frame)                       : 0.154
  21. Stream size                              : 4.59 GiB (82%)
  22. Writing library                          : x264 core 120 r2146 bcd41db
  23. Encoding settings                        : cabac=1 / ref=4 / deblock=1:0:0 / analyse=0x3:0x133 / me=umh / subme=7 / psy=1 / psy_rd=1.00:0.00 / mixed_ref=1 / me_range=16 / chroma_me=1 / trellis=1 / 8x8dct=1 / cqm=0 / deadzone=21,11 / fast_pskip=0 / chroma_qp_offset=-2 / threads=9 / sliced_threads=0 / nr=0 / decimate=1 / interlaced=0 / bluray_compat=0 / constrained_intra=0 / bframes=3 / b_pyramid=2 / b_adapt=1 / b_bias=0 / direct=1 / weightb=1 / open_gop=0 / weightp=2 / keyint=250 / keyint_min=23 / scenecut=40 / intra_refresh=0 / rc_lookahead=40 / rc=2pass / mbtree=1 / bitrate=7675 / ratetol=1.0 / qcomp=0.60 / qpmin=0 / qpmax=69 / qpstep=4 / cplxblur=20.0 / qblur=0.5 / ip_ratio=1.40 / aq=1:1.00
  24. Language                                 : English
  25. Default                                  : Yes
  26. Forced                                   : No
  27. Audio
  28. ID                                       : 2
  29. Format                                   : DTS
  30. Format/Info                              : Digital Theater Systems
  31. Mode                                     : 16
  32. Format settings, Endianness              : Big
  33. Codec ID                                 : A_DTS
  34. Duration                                 : 1h 28mn
  35. Bit rate mode                            : Constant
  36. Bit rate                                 : 1 509 Kbps
  37. Channel(s)                               : 6 channels
  38. Channel positions                        : Front: L C R, Side: L R, LFE
  39. Sampling rate                            : 48.0 KHz
  40. Frame rate                               : 93.750 fps (512 spf)
  41. Bit depth                                : 16 bits
  42. Compression mode                         : Lossy
  43. Stream size                              : 950 MiB (16%)
  44. Language                                 : English
  45. Default                                  : No
  46. Forced                                   : No
复制代码









                                       
                                       

                                       
                                       
                                       




回复

使用道具 举报

懒得打字嘛,点击右侧快捷回复 【右侧内容,后台自定义】
您需要登录后才可以回帖 登录 | 立即加入

本版积分规则

Archiver|小黑屋| 蓝光电影网 |网站地图

Copyright © 2021 Comsenz Inc. Powered by 蓝光电影网

蓝光电影网

本站内容由用户自主分享和转载自互联网,转载目的在于传递更多信息,并不代表本网赞同其观点和对其真实性负责。

如有侵权、违反国家法律政策行为,请联系我们,我们会第一时间及时清除和处理!

举报反馈邮箱:[email protected]

快速回复 返回顶部 返回列表