找回密码

蓝光电影网

查看: 29|回复: 1

[动作] 第一滴血4 Rambo.2008.EXTENDED.1080p.BluRay.x264.TrueHD.7.1.Atmos-SWTYBLZ 14.28GB

[复制链接]
蓝光币
511
发表于 2019-8-27 05:57:24 | 显示全部楼层 |阅读模式


◎译  名 第一滴血4 / John Rambo / RAMBO 热血回归 / Rambo IV / Rambo The Fight Continues / 兰博4 / 第四滴血
◎片  名 Rambo
◎年  代 2008
◎产  地 美国 / 德国
◎类  别 行动 / 惊悚
◎语  言 英语 / 缅甸语 / 泰语
◎上映日期 2008-01-25(美国)
◎IMDb评分  7.0/10 from 203587 users
◎IMDb链接  http://www.imdb.com/title/tt0462499
◎豆瓣评分 7.3/10 from 32676 users
◎豆瓣链接 https://movie.douban.com/subject/1440855/
◎片  长 92分钟
◎导  演 Sylvester Stallone
◎编  剧 Art Monterastelli / Sylvester Stallone / David Morrell
◎主  演 西尔维斯特·史泰龙 Sylvester Stallone
       朱莉·本茨 Julie Benz
       马修·马斯登 Matthew Marsden
       Graham McTavish
       Reynaldo Gallegos

◎标  签 行动 | 史泰龙 | 美国 | 战争 | 美国电影 | Rambo | 2008 | 兰博4
◎简  介  
  军政府统治下的缅甸,其西部由于包含丰富资本而被军队觊觎多年,那边的儿童经常被军队强征参军,针对平民的屠杀已经成了部分甲士的文娱……一支教会义工小队为了进入该地域向难民供给人性主义帮助,在泰国找到了隐居的兰博(西尔维斯特?史泰龙 Sylvester Stallone 饰),希望熟悉河流的后者供给帮助。兰博以为时势没有改变的能够,拒绝领路,但终被义工莎拉(Julie Benz 饰)的诚意感动,将他们投递。
  岂料这支义工小队在村落中遭到军队的攻击,生还者全数被掳走。教会得悉义工们身陷险境,构造雇佣军救援,并再次拜托兰博领路,这一次,兰博的态度发生了改变,他率领雇佣兵们潜入缅甸军营,又一次化身热血战士。
  1. Video
  2. ID                                       : 1
  3. Format                                   : AVC
  4. Format/Info                              : Advanced Video Codec
  5. Format profile                           : [email protected]
  6. Format settings                          : CABAC / 5 Ref Frames
  7. Format settings, CABAC                   : Yes
  8. Format settings, Reference frames        : 5 frames
  9. Codec ID                                 : V_MPEG4/ISO/AVC
  10. Duration                                 : 1 h 39 min
  11. Bit rate                                 : 14.2 Mb/s
  12. Width                                    : 1 920 pixels
  13. Height                                   : 816 pixels
  14. Display aspect ratio                     : 2.35:1
  15. Frame rate mode                          : Constant
  16. Frame rate                               : 23.976 (24000/1001) FPS
  17. Color space                              : YUV
  18. Chroma subsampling                       : 4:2:0
  19. Bit depth                                : 8 bits
  20. Scan type                                : Progressive
  21. Bits/(Pixel*Frame)                       : 0.378
  22. Stream size                              : 9.84 GiB (69%)
  23. Title                                    : Rambo.2008.EXTENDED.1080p.BluRay.x264.TrueHD.7.1.Atmos-SWTYBLZ
  24. Writing library                          : x264 core 157 r2935 545de2f
  25. Encoding settings                        : cabac=1 / ref=5 / deblock=1:-1:-1 / analyse=0x3:0x133 / me=umh / subme=10 / psy=1 / psy_rd=1.00:0.15 / mixed_ref=1 / me_range=48 / chroma_me=1 / trellis=2 / 8x8dct=1 / cqm=0 / deadzone=21,11 / fast_pskip=1 / chroma_qp_offset=-3 / threads=25 / lookahead_threads=4 / sliced_threads=0 / nr=0 / decimate=0 / interlaced=0 / bluray_compat=0 / constrained_intra=0 / bframes=8 / b_pyramid=2 / b_adapt=2 / b_bias=0 / direct=3 / weightb=1 / open_gop=0 / weightp=2 / keyint=250 / keyint_min=23 / scenecut=40 / intra_refresh=0 / rc_lookahead=60 / rc=crf / mbtree=1 / crf=17.0 / qcomp=0.60 / qpmin=0 / qpmax=69 / qpstep=4 / ip_ratio=1.40 / aq=1:1.00
  26. Default                                  : Yes
  27. Forced                                   : No
  28. Audio #1
  29. ID                                       : 2
  30. Format                                   : MLP FBA 16-ch
  31. Format/Info                              : Meridian Lossless Packing FBA with 16-channel presentation
  32. Commercial name                          : Dolby TrueHD with Dolby Atmos
  33. Codec ID                                 : A_TRUEHD
  34. Duration                                 : 1 h 39 min
  35. Bit rate mode                            : Variable
  36. Bit rate                                 : 5 671 kb/s
  37. Maximum bit rate                         : 8 955 kb/s
  38. Channel(s)                               : 8 channels
  39. Channel layout                           : L R C LFE Ls Rs Lb Rb
  40. Sampling rate                            : 48.0 kHz
  41. Frame rate                               : 1 200.000 FPS (40 SPF)
  42. Compression mode                         : Lossless
  43. Stream size                              : 3.93 GiB (28%)
  44. Title                                    : Rambo.2008.EXTENDED.1080p.BluRay.x264.TrueHD.7.1.Atmos-SWTYBLZ
  45. Language                                 : English
  46. Default                                  : Yes
  47. Forced                                   : No
  48. Number of dynamic objects                : 15
  49. Bed channel count                        : 1 channel
  50. Bed channel configuration                : LFE
  51. Audio #2
  52. ID                                       : 3
  53. Format                                   : AC-3
  54. Format/Info                              : Audio Coding 3
  55. Commercial name                          : Dolby Digital
  56. Codec ID                                 : A_AC3
  57. Duration                                 : 1 h 39 min
  58. Bit rate mode                            : Constant
  59. Bit rate                                 : 640 kb/s
  60. Channel(s)                               : 6 channels
  61. Channel layout                           : L R C LFE Ls Rs
  62. Sampling rate                            : 48.0 kHz
  63. Frame rate                               : 31.250 FPS (1536 SPF)
  64. Bit depth                                : 16 bits
  65. Compression mode                         : Lossy
  66. Stream size                              : 454 MiB (3%)
  67. Title                                    : Rambo.2008.EXTENDED.1080p.BluRay.x264.TrueHD.7.1.Atmos-SWTYBLZ
  68. Language                                 : English
  69. Service kind                             : Complete Main
  70. Default                                  : No
  71. Forced                                   : No
  72. Text #1
  73. ID                                       : 4
  74. Format                                   : UTF-8
  75. Codec ID                                 : S_TEXT/UTF8
  76. Codec ID/Info                            : UTF-8 Plain Text
  77. Duration                                 : 1 h 25 min
  78. Bit rate                                 : 29 b/s
  79. Count of elements                        : 562
  80. Stream size                              : 18.3 KiB (0%)
  81. Title                                    : English-SRT
  82. Language                                 : English
  83. Default                                  : Yes
  84. Forced                                   : No
  85. Text #2
  86. ID                                       : 5
  87. Format                                   : PGS
  88. Muxing mode                              : zlib
  89. Codec ID                                 : S_HDMV/PGS
  90. Codec ID/Info                            : Picture based subtitle format used on BDs/HD-DVDs
  91. Duration                                 : 1 h 25 min
  92. Bit rate                                 : 19.1 kb/s
  93. Count of elements                        : 1124
  94. Stream size                              : 11.7 MiB (0%)
  95. Title                                    : English-PGS
  96. Language                                 : English
  97. Default                                  : No
  98. Forced                                   : No
  99. Text #3
  100. ID                                       : 6
  101. Format                                   : PGS
  102. Muxing mode                              : zlib
  103. Codec ID                                 : S_HDMV/PGS
  104. Codec ID/Info                            : Picture based subtitle format used on BDs/HD-DVDs
  105. Duration                                 : 1 h 25 min
  106. Bit rate                                 : 23.1 kb/s
  107. Count of elements                        : 1426
  108. Stream size                              : 14.1 MiB (0%)
  109. Title                                    : English-PGS
  110. Language                                 : English
  111. Default                                  : No
  112. Forced                                   : No
  113. Text #4
  114. ID                                       : 7
  115. Format                                   : PGS
  116. Muxing mode                              : zlib
  117. Codec ID                                 : S_HDMV/PGS
  118. Codec ID/Info                            : Picture based subtitle format used on BDs/HD-DVDs
  119. Duration                                 : 1 h 25 min
  120. Bit rate                                 : 19.3 kb/s
  121. Count of elements                        : 1320
  122. Stream size                              : 11.8 MiB (0%)
  123. Title                                    : Spanish-PGS
  124. Language                                 : Spanish
  125. Default                                  : No
  126. Forced                                   : No
  127. Menu
  128. 00:00:00.000                             : en:Chapter 01
  129. 00:06:04.573                             : en:Chapter 02
  130. 00:11:33.651                             : en:Chapter 03
  131. 00:22:41.735                             : en:Chapter 04
  132. 00:28:31.376                             : en:Chapter 05
  133. 00:33:17.621                             : en:Chapter 06
  134. 00:42:32.216                             : en:Chapter 07
  135. 00:47:26.135                             : en:Chapter 08
  136. 00:52:06.999                             : en:Chapter 09
  137. 00:59:18.013                             : en:Chapter 10
  138. 01:03:30.849                             : en:Chapter 11
  139. 01:08:03.246                             : en:Chapter 12
  140. 01:13:43.461                             : en:Chapter 13
  141. 01:19:02.529                             : en:Chapter 14
  142. 01:24:37.239                             : en:Chapter 15
  143. 01:27:17.232                             : en:Chapter 16
复制代码






                                       
                                       

                                       
                                       
                                       




回复

使用道具 举报

蓝光币
17
发表于 2021-10-2 16:18:54 | 显示全部楼层
一部比一部血腥,还原真实的战场
回复 支持 反对

使用道具 举报

懒得打字嘛,点击右侧快捷回复 【右侧内容,后台自定义】
您需要登录后才可以回帖 登录 | 立即加入

本版积分规则

Archiver|小黑屋| 蓝光电影网 |网站地图

Copyright © 2021 Comsenz Inc. Powered by 蓝光电影网

蓝光电影网

本站内容由用户自主分享和转载自互联网,转载目的在于传递更多信息,并不代表本网赞同其观点和对其真实性负责。

如有侵权、违反国家法律政策行为,请联系我们,我们会第一时间及时清除和处理!

举报反馈邮箱:[email protected]

快速回复 返回顶部 返回列表