找回密码

蓝光电影网

查看: 22|回复: 0

[喜剧] 飞天万能车 Chitty.Chitty.Bang.Bang.1968.1080p.BluRay.x264.DTS-FGT 17.29GB

[复制链接]
蓝光币
519
发表于 2020-11-24 08:44:43 | 显示全部楼层 |阅读模式


◎译  名 飞天万能车
◎片  名 Chitty Chitty Bang Bang
◎年  代 1968
◎产  地 英国
◎类  别 笑剧 / 歌舞 / 家庭 / 奇异
◎语  言 英语
◎上映日期 1969-12-04
◎IMDb评分  6.9/10 from 40479 users
◎IMDb链接  https://www.imdb.com/title/tt0062803/
◎豆瓣评分 7.5/10 from 173 users
◎豆瓣链接 https://movie.douban.com/subject/1300407/
◎片  长 144 分钟
◎导  演 肯·休斯 Ken Hughes
◎编  剧 罗尔德·达尔 Roald Dahl / 伊恩·弗莱明 Ian Fleming / 肯·休斯 Ken Hughes / 理查德·麦鲍姆 Richard Maibaum
◎主  演 迪克·范·戴克 Dick Van Dyke
       萨莉·安·豪斯 Sally Ann Howes
       莱昂内尔·杰弗里斯 Lionel Jeffries
◎标  签 笑剧 | 英国 | 音乐剧 | 歌舞 | 1968 | 英国电影 | 音乐 | 1960s
◎简  介


  一位怪点子特多的发现家,带着两个孩子驾驶一辆老爷车出外度假,碰到连篇怪事。未几,孩子们祖父竟遭绑架,孩子们也成为暴徒觊觎的方针。此时老爷车开成了可以飞全国海的万能车,率领发现家去拯救亲人。
◎获奖情况
  第41届奥斯卡金像奖 ?(1969)
  最好原创歌曲(提名) 理查德·谢尔曼?/?罗伯特·谢尔曼
  1. Video
  2. ID                                       : 1
  3. Format                                   : AVC
  4. Format/Info                              : Advanced Video Codec
  5. Format profile                           : [email protected]
  6. Format settings, CABAC                   : Yes
  7. Format settings, ReFrames                : 4 frames
  8. Codec ID                                 : V_MPEG4/ISO/AVC
  9. Duration                                 : 2h 25mn
  10. Bit rate                                 : 15.5 Mbps
  11. Width                                    : 1 920 pixels
  12. Height                                   : 874 pixels
  13. Display aspect ratio                     : 2.2:1
  14. Frame rate mode                          : Constant
  15. Frame rate                               : 23.976 (24000/1001) fps
  16. Color space                              : YUV
  17. Chroma subsampling                       : 4:2:0
  18. Bit depth                                : 8 bits
  19. Scan type                                : Progressive
  20. Bits/(Pixel*Frame)                       : 0.385
  21. Stream size                              : 15.4 GiB (89%)
  22. Writing library                          : x264 core 125 r2200 999b753
  23. Encoding settings                        : cabac=1 / ref=4 / deblock=1:-3:-3 / analyse=0x3:0x113 / me=tesa / subme=11 / psy=1 / psy_rd=0.79:0.00 / mixed_ref=1 / me_range=24 / chroma_me=1 / trellis=2 / 8x8dct=1 / cqm=0 / deadzone=21,11 / fast_pskip=1 / chroma_qp_offset=-2 / threads=12 / lookahead_threads=2 / sliced_threads=0 / nr=0 / decimate=1 / interlaced=0 / bluray_compat=0 / constrained_intra=0 / bframes=8 / b_pyramid=2 / b_adapt=2 / b_bias=0 / direct=3 / weightb=1 / open_gop=0 / weightp=2 / keyint=240 / keyint_min=23 / scenecut=40 / intra_refresh=0 / rc_lookahead=90 / rc=2pass / mbtree=1 / bitrate=15500 / ratetol=1.0 / qcomp=0.60 / qpmin=10 / qpmax=69 / qpstep=4 / cplxblur=20.0 / qblur=0.5 / ip_ratio=1.40 / aq=2:0.80
  24. Language                                 : English
  25. Default                                  : Yes
  26. Forced                                   : No
  27. Audio
  28. ID                                       : 2
  29. Format                                   : DTS
  30. Format/Info                              : Digital Theater Systems
  31. Mode                                     : 16
  32. Format settings, Endianness              : Big
  33. Codec ID                                 : A_DTS
  34. Duration                                 : 2h 25mn
  35. Bit rate mode                            : Constant
  36. Bit rate                                 : 1 509 Kbps
  37. Channel(s)                               : 6 channels
  38. Channel positions                        : Front: L C R, Side: L R, LFE
  39. Sampling rate                            : 48.0 KHz
  40. Frame rate                               : 93.750 fps (512 spf)
  41. Bit depth                                : 24 bits
  42. Compression mode                         : Lossy
  43. Stream size                              : 1.53 GiB (9%)
  44. Language                                 : English
  45. Default                                  : Yes
  46. Forced                                   : No
  47. Text #1
  48. ID                                       : 3
  49. Format                                   : UTF-8
  50. Codec ID                                 : S_TEXT/UTF8
  51. Codec ID/Info                            : UTF-8 Plain Text
  52. Title                                    : English
  53. Language                                 : English
  54. Default                                  : Yes
  55. Forced                                   : No
  56. Text #2
  57. ID                                       : 4
  58. Format                                   : UTF-8
  59. Codec ID                                 : S_TEXT/UTF8
  60. Codec ID/Info                            : UTF-8 Plain Text
  61. Title                                    : French
  62. Language                                 : French
  63. Default                                  : No
  64. Forced                                   : No
  65. Menu
  66. 00:00:00.000                             : en:00:00:00.000
  67. 00:06:45.238                             : en:00:06:45.238
  68. 00:11:08.877                             : en:00:11:08.877
  69. 00:18:34.322                             : en:00:18:34.322
  70. 00:22:26.470                             : en:00:22:26.470
  71. 00:30:10.225                             : en:00:30:10.225
  72. 00:35:48.521                             : en:00:35:48.521
  73. 00:37:39.674                             : en:00:37:39.674
  74. 00:40:35.141                             : en:00:40:35.141
  75. 00:44:32.169                             : en:00:44:32.169
  76. 00:47:50.201                             : en:00:47:50.201
  77. 00:53:46.807                             : en:00:53:46.807
  78. 00:58:34.344                             : en:00:58:34.344
  79. 00:59:34.780                             : en:00:59:34.780
  80. 01:03:28.430                             : en:01:03:28.430
  81. 01:07:31.464                             : en:01:07:31.464
  82. 01:12:42.900                             : en:01:12:42.900
  83. 01:17:07.414                             : en:01:17:07.414
  84. 01:24:45.497                             : en:01:24:45.497
  85. 01:25:50.479                             : en:01:25:50.479
  86. 01:28:43.151                             : en:01:28:43.151
  87. 01:35:20.465                             : en:01:35:20.465
  88. 01:38:11.677                             : en:01:38:11.677
  89. 01:43:16.065                             : en:01:43:16.065
  90. 01:49:16.258                             : en:01:49:16.258
  91. 01:55:37.639                             : en:01:55:37.639
  92. 01:57:56.695                             : en:01:57:56.695
  93. 01:59:49.015                             : en:01:59:49.015
  94. 02:05:06.666                             : en:02:05:06.666
  95. 02:10:53.054                             : en:02:10:53.054
  96. 02:17:09.513                             : en:02:17:09.513
  97. 02:21:37.864                             : en:02:21:37.864
复制代码









                                       
                                       

                                       
                                       
                                       




回复

使用道具 举报

懒得打字嘛,点击右侧快捷回复 【右侧内容,后台自定义】
您需要登录后才可以回帖 登录 | 立即加入

本版积分规则

Archiver|小黑屋| 蓝光电影网 |网站地图

Copyright © 2021 Comsenz Inc. Powered by 蓝光电影网

蓝光电影网

本站内容由用户自主分享和转载自互联网,转载目的在于传递更多信息,并不代表本网赞同其观点和对其真实性负责。

如有侵权、违反国家法律政策行为,请联系我们,我们会第一时间及时清除和处理!

举报反馈邮箱:[email protected]

快速回复 返回顶部 返回列表