找回密码

蓝光电影网

查看: 23|回复: 0

[动作] 代号47/刺客任务: 杀手47 Hitman.Agent.47.2015.1080p.BluRay.x264-DRONES 7.74GB

[复制链接]
蓝光币
515
发表于 2019-8-27 01:49:33 | 显示全部楼层 |阅读模式


◎译  名 代号47 / 刺客使命: 杀手47(台) / 刺客特攻47(港) / 杀手:代号47
◎片  名 Hitman: Agent 47
◎年  代 2015
◎产  地 美国
◎类  别 行动 / 惊悚 / 犯罪
◎语  言 英语
◎上映日期 2015-08-21(美国)
◎IMDb评分  5.7/10 from 81189 users
◎IMDb链接  http://www.imdb.com/title/tt2679042
◎豆瓣评分 6.0/10 from 19101 users
◎豆瓣链接 https://movie.douban.com/subject/21350962/
◎片  长 96分钟
◎导  演 亚历山大·巴赫 Aleksander Bach
◎编  剧 斯基普·伍兹 Skip Woods / 迈克尔·芬奇 Michael Finch
◎主  演 鲁伯特·弗兰德 Rupert Friend
       扎克瑞·昆图 Zachary Quinto
       塞伦·希德 Ciarán Hinds
       托马斯·克莱舒曼 Thomas Kretschmann
       汉娜·韦尔 Hannah Ware
       丹·巴克达尔 Dan Bakkedahl
       埃米里奥·瑞弗拉 Emilio Rivera
       罗夫·凯尼斯 Rolf Kanies
       Michaela Caspar
       杨颖 Angelababy

◎标  签 行动 | 美国 | 杀手 | 游戏改编 | 代号47 | 犯罪 | 科幻 | 2015
◎简  介  
  影片按照同名游戏改编,“代号47”(鲁伯特·弗兰德 Rupert Friend 饰)是奥秘杀手构造的头号杀手,他性情冷静,聪明过人,行动奥秘低调,历来没人晓得他的底细,只靠颈后位置的一个纹身条码识别身份。
  “代号47”既是罪行的化身,又是好心的使徒。他从不外问犯罪的真理 及意义,直到碰上一位惊为天人神祕女子卡蒂娅(汉娜·韦尔 Hannah Ware 饰),改写了他的命运,更使他遭到杀手构造的追杀,生命危在旦夕……
  1. Video
  2. ID                                       : 1
  3. Format                                   : AVC
  4. Format/Info                              : Advanced Video Codec
  5. Format profile                           : [email protected]
  6. Format settings                          : CABAC / 5 Ref Frames
  7. Format settings, CABAC                   : Yes
  8. Format settings, Reference frames        : 5 frames
  9. Codec ID                                 : V_MPEG4/ISO/AVC
  10. Duration                                 : 1 h 36 min
  11. Bit rate                                 : 9 935 kb/s
  12. Width                                    : 1 920 pixels
  13. Height                                   : 808 pixels
  14. Display aspect ratio                     : 2.40:1
  15. Frame rate mode                          : Constant
  16. Frame rate                               : 23.976 FPS
  17. Color space                              : YUV
  18. Chroma subsampling                       : 4:2:0
  19. Bit depth                                : 8 bits
  20. Scan type                                : Progressive
  21. Bits/(Pixel*Frame)                       : 0.267
  22. Stream size                              : 6.63 GiB (87%)
  23. Writing library                          : x264 core 148 r2638 7599210
  24. Encoding settings                        : cabac=1 / ref=5 / deblock=1:0:0 / analyse=0x3:0x133 / me=umh / subme=7 / psy=1 / psy_rd=1.00:0.00 / mixed_ref=1 / me_range=16 / chroma_me=1 / trellis=1 / 8x8dct=1 / cqm=0 / deadzone=21,11 / fast_pskip=0 / chroma_qp_offset=-2 / threads=12 / lookahead_threads=2 / sliced_threads=0 / nr=0 / decimate=1 / interlaced=0 / bluray_compat=0 / constrained_intra=0 / bframes=3 / b_pyramid=2 / b_adapt=1 / b_bias=0 / direct=1 / weightb=1 / open_gop=0 / weightp=2 / keyint=250 / keyint_min=23 / scenecut=40 / intra_refresh=0 / rc_lookahead=40 / rc=2pass / mbtree=1 / bitrate=9935 / ratetol=1.0 / qcomp=0.60 / qpmin=0 / qpmax=69 / qpstep=4 / cplxblur=20.0 / qblur=0.5 / ip_ratio=1.40 / aq=1:1.00
  25. Language                                 : English
  26. Default                                  : Yes
  27. Forced                                   : No

  28. Audio
  29. ID                                       : 2
  30. Format                                   : DTS ES
  31. Format/Info                              : Digital Theater Systems
  32. Commercial name                          : DTS-ES Matrix
  33. Codec ID                                 : A_DTS
  34. Duration                                 : 1 h 36 min
  35. Bit rate mode                            : Constant
  36. Bit rate                                 : 1 509 kb/s
  37. Channel(s)                               : 6 channels
  38. Channel(s)_Original                      : 7 channels
  39. Channel layout                           : C L R Ls Rs Cb LFE
  40. Sampling rate                            : 48.0 kHz
  41. Frame rate                               : 93.750 FPS (512 SPF)
  42. Bit depth                                : 24 bits
  43. Compression mode                         : Lossy
  44. Stream size                              : 1.01 GiB (13%)
  45. Language                                 : English
  46. Default                                  : Yes
  47. Forced                                   : No

  48. Menu
  49. 00:00:00.000                             : en:00:00:00.000
  50. 00:07:11.348                             : en:00:07:11.348
  51. 00:09:02.959                             : en:00:09:02.959
  52. 00:13:11.582                             : en:00:13:11.582
  53. 00:16:21.606                             : en:00:16:21.606
  54. 00:19:22.787                             : en:00:19:22.787
  55. 00:24:43.816                             : en:00:24:43.816
  56. 00:27:19.179                             : en:00:27:19.179
  57. 00:30:18.692                             : en:00:30:18.692
  58. 00:33:03.815                             : en:00:33:03.815
  59. 00:38:18.713                             : en:00:38:18.713
  60. 00:43:11.756                             : en:00:43:11.756
  61. 00:46:53.436                             : en:00:46:53.436
  62. 00:50:39.870                             : en:00:50:39.870
  63. 00:54:02.531                             : en:00:54:02.531
  64. 00:59:50.587                             : en:00:59:50.587
  65. 01:06:01.749                             : en:01:06:01.749
  66. 01:09:06.142                             : en:01:09:06.142
  67. 01:13:23.190                             : en:01:13:23.190
  68. 01:16:55.319                             : en:01:16:55.319
  69. 01:21:15.746                             : en:01:21:15.746
  70. 01:25:20.824                             : en:01:25:20.824
  71. 01:28:06.156                             : en:01:28:06.156
  72. 01:31:17.847                             : en:01:31:17.847
复制代码




                                       
                                       

                                       
                                       
                                       




回复

使用道具 举报

懒得打字嘛,点击右侧快捷回复 【右侧内容,后台自定义】
您需要登录后才可以回帖 登录 | 立即加入

本版积分规则

Archiver|小黑屋| 蓝光电影网 |网站地图

Copyright © 2021 Comsenz Inc. Powered by 蓝光电影网

蓝光电影网

本站内容由用户自主分享和转载自互联网,转载目的在于传递更多信息,并不代表本网赞同其观点和对其真实性负责。

如有侵权、违反国家法律政策行为,请联系我们,我们会第一时间及时清除和处理!

举报反馈邮箱:[email protected]

快速回复 返回顶部 返回列表