找回密码

蓝光电影网

查看: 14|回复: 0

[剧情] 漫长的告别/扑朔迷离 The.Long.Goodbye.1973.1080p.BluRay.REMUX.AVC.LPCM.2.0-FGT 30.01GB

[复制链接]
蓝光币
515
发表于 2019-6-27 18:39:39 | 显示全部楼层 |阅读模式


◎译  名 冗长的离别 / 扑朔迷离 / 长分袂
◎片  名 The Long Goodbye
◎年  代 1973
◎产  地 美国
◎类  别 剧情 / 悬疑 / 惊悚 / 犯罪
◎语  言 英语
◎上映日期 1973-03-07
◎IMDb评分  7.7/10 from 22540 users
◎IMDb链接  http://www.imdb.com/title/tt0070334
◎豆瓣评分 7.3/10 from 1405 users
◎豆瓣链接 https://movie.douban.com/subject/1299236/
◎片  长 112 分钟
◎导  演 Robert Altman
◎编  剧 Leigh Brackett
◎主  演 Elliott Gould
      Nina Van Pallandt
      Sterling Hayden
      Mark Rydell
      Henry Gibson
      阿诺·施瓦辛格 Arnold Schwarzenegger

◎标  签 美国 | 悬疑 | 罗伯特·奥尔特曼 | 1970s | 1973 | 黑色 | RobertAltman | 美国电影
◎简  介  
  前身为差人的菲利浦马洛(埃利奥特·古尔德 Elliott Gould 饰)现在干起了私人侦察的活计,虽然他干事极为低调死力避免被卷入麻烦的漩涡,但麻烦事恍如长了眼睛,紧咬着他不放。此次亦然,当老友深夜找到马洛让他将自己送出境外时,看着他躲闪的眼光,经历老道的马洛心中就有了不详的预见。果不其然,未几以后,差人就以辅佐老友杀戮妻子的名义将马洛缉捕归案。
在得知了朋友命丧黄泉的消息以后,对朋友的明净深信不疑的马洛立誓要找到事务的真相。与此同时,一个美艳的妇人找到马洛,拜托他寻觅自己酗酒而又粗鲁的丈夫。两件看似无关的案件,却再公开里相互关联,不知不觉中深陷诡计中心的马洛此次还能战争常一样逢凶化吉吗?
  1. Video
  2. ID                                       : 1
  3. Format                                   : AVC
  4. Format/Info                              : Advanced Video Codec
  5. Format profile                           : [email protected]
  6. Format settings                          : CABAC / 3 Ref Frames
  7. Format settings, CABAC                   : Yes
  8. Format settings, ReFrames                : 3 frames
  9. Codec ID                                 : V_MPEG4/ISO/AVC
  10. Duration                                 : 1 h 52 min
  11. Bit rate mode                            : Variable
  12. Bit rate                                 : 37.0 Mb/s
  13. Width                                    : 1 920 pixels
  14. Height                                   : 1 080 pixels
  15. Display aspect ratio                     : 16:9
  16. Frame rate mode                          : Constant
  17. Frame rate                               : 23.976 (24000/1001) FPS
  18. Standard                                 : NTSC
  19. Color space                              : YUV
  20. Chroma subsampling                       : 4:2:0
  21. Bit depth                                : 8 bits
  22. Scan type                                : Progressive
  23. Bits/(Pixel*Frame)                       : 0.744
  24. Stream size                              : 28.8 GiB (96%)
  25. Title                                    : The.Long.Goodbye.1973.1080p.BluRay.REMUX.AVC.LPCM.2.0-FGT
  26. Writing library                          : x264pro - Adobe CS Exporter Plug-in
  27. Encoding settings                        : cabac=1 / ref=4 / deblock=1:-2:-2 / analyse=0x3:0x113 / me=umh / subme=9 / psy=1 / psy_rd=1.00:0.25 / mixed_ref=1 / me_range=16 / chroma_me=1 / trellis=1 / 8x8dct=1 / cqm=0 / deadzone=6,6 / fast_pskip=1 / chroma_qp_offset=-4 / threads=16 / lookahead_threads=2 / sliced_threads=0 / slices=4 / nr=0 / decimate=0 / interlaced=0 / bluray_compat=1 / constrained_intra=0 / bframes=3 / b_pyramid=1 / b_adapt=2 / b_bias=0 / direct=3 / weightb=1 / open_gop=0 / weightp=1 / keyint=24 / keyint_min=1 / scenecut=40 / intra_refresh=0 / rc_lookahead=24 / rc=crf / mbtree=1 / crf=1.0 / qcomp=0.80 / qpmin=0 / qpmax=69 / qpstep=4 / vbv_maxrate=37000 / vbv_bufsize=30000 / crf_max=0.0 / nal_hrd=vbr / ip_ratio=1.10 / aq=1:0.50
  28. Language                                 : English
  29. Default                                  : No
  30. Forced                                   : No
  31. Color range                              : Limited
  32. Color primaries                          : BT.709
  33. Transfer characteristics                 : BT.709
  34. Matrix coefficients                      : BT.709
  35. Audio
  36. ID                                       : 2
  37. Format                                   : PCM
  38. Format settings                          : Little / Signed
  39. Codec ID                                 : A_PCM/INT/LIT
  40. Duration                                 : 1 h 52 min
  41. Bit rate mode                            : Constant
  42. Bit rate                                 : 1 536 kb/s
  43. Channel(s)                               : 2 channels
  44. Sampling rate                            : 48.0 kHz
  45. Frame rate                               : 30.000 FPS (1600 SPF)
  46. Bit depth                                : 16 bits
  47. Stream size                              : 1.20 GiB (4%)
  48. Title                                    : The.Long.Goodbye.1973.1080p.BluRay.REMUX.AVC.LPCM.2.0-FGT
  49. Language                                 : English
  50. Default                                  : Yes
  51. Forced                                   : No
  52. Text
  53. ID                                       : 3
  54. Format                                   : PGS
  55. Muxing mode                              : zlib
  56. Codec ID                                 : S_HDMV/PGS
  57. Codec ID/Info                            : Picture based subtitle format used on BDs/HD-DVDs
  58. Duration                                 : 1 h 48 min
  59. Bit rate                                 : 41.6 kb/s
  60. Count of elements                        : 2618
  61. Stream size                              : 32.2 MiB (0%)
  62. Title                                    : English-PGS
  63. Language                                 : English
  64. Default                                  : Yes
  65. Forced                                   : No
  66. Menu
  67. 00:00:00.000                             : en:Chapter 01
  68. 00:08:06.319                             : en:Chapter 02
  69. 00:13:21.342                             : en:Chapter 03
  70. 00:22:28.472                             : en:Chapter 04
  71. 00:28:41.511                             : en:Chapter 05
  72. 00:35:04.685                             : en:Chapter 06
  73. 00:45:19.174                             : en:Chapter 07
  74. 00:55:21.318                             : en:Chapter 08
  75. 01:01:04.202                             : en:Chapter 09
  76. 01:11:21.694                             : en:Chapter 10
  77. 01:14:59.077                             : en:Chapter 11
  78. 01:21:05.986                             : en:Chapter 12
  79. 01:30:24.794                             : en:Chapter 13
  80. 01:37:37.101                             : en:Chapter 14
  81. 01:43:59.024                             : en:Chapter 15
  82. 01:50:28.913                             : en:Chapter 16
复制代码






                                       
                                       

                                       
                                       
                                       




回复

使用道具 举报

懒得打字嘛,点击右侧快捷回复 【右侧内容,后台自定义】
您需要登录后才可以回帖 登录 | 立即加入

本版积分规则

Archiver|小黑屋| 蓝光电影网 |网站地图

Copyright © 2021 Comsenz Inc. Powered by 蓝光电影网

蓝光电影网

本站内容由用户自主分享和转载自互联网,转载目的在于传递更多信息,并不代表本网赞同其观点和对其真实性负责。

如有侵权、违反国家法律政策行为,请联系我们,我们会第一时间及时清除和处理!

举报反馈邮箱:[email protected]

快速回复 返回顶部 返回列表