找回密码

蓝光电影网

查看: 15|回复: 0

[喜剧] 丧尸大烟枪/死亡交响曲 Bong.of.the.Dead.2011.1080p.BluRay.x264.DTS-FGT 5.73GB

[复制链接]
蓝光币
515
发表于 2020-11-24 08:41:42 | 显示全部楼层 |阅读模式


◎译  名 丧尸大烟枪/灭亡交响曲/烟斗僵尸
◎片  名 Bong of the Dead
◎年  代 2011
◎产  地 加拿大
◎类  别 笑剧 / 行动 / 可骇
◎语  言 英语
◎上映日期 2011-05-12
◎IMDb评分  3.3/10 from 606 users
◎IMDb链接  https://www.imdb.com/title/tt1821352/
◎豆瓣评分 5.2/10 from 180 users
◎豆瓣链接 https://movie.douban.com/subject/6892901/
◎导  演 托马斯·纽曼 Thomas Newman
◎编  剧 托马斯·纽曼 Thomas Newman
◎标  签 可骇 | 血腥 | 加拿大 | cult | 丧尸片 | 丧尸 | 笑剧 | B级片
◎简  介


  几颗流星攻击地球,其照顾的病毒致使整小我类社会频临危机,凡是中其辐射者都发生了尸变反应。没过量久天下就已经被丧尸征服。地球的某处,两个烟鬼由于弄不到好烟抽而忧愁,因而他们决议冒险走出自己的庇护区,到丧尸横行的外地去寻觅更有代价的大烟……
  
  When the world is taken over by flesh eating zombies, best friends Tommy and Edwin figure out a way to benefit from it by turning zombies into fertilizer for growing potent weed! There will be bud.
  1. Video
  2. ID                                       : 1
  3. Format                                   : AVC
  4. Format/Info                              : Advanced Video Codec
  5. Format profile                           : [email protected]
  6. Format settings, CABAC                   : Yes
  7. Format settings, ReFrames                : 4 frames
  8. Codec ID                                 : V_MPEG4/ISO/AVC
  9. Duration                                 : 1h 38mn
  10. Bit rate                                 : 6 642 Kbps
  11. Width                                    : 1 920 pixels
  12. Height                                   : 1 080 pixels
  13. Display aspect ratio                     : 16:9
  14. Frame rate mode                          : Constant
  15. Frame rate                               : 29.970 (30000/1001) fps
  16. Color space                              : YUV
  17. Chroma subsampling                       : 4:2:0
  18. Bit depth                                : 8 bits
  19. Scan type                                : Progressive
  20. Bits/(Pixel*Frame)                       : 0.107
  21. Stream size                              : 4.58 GiB (80%)
  22. Writing library                          : x264 core 118 r2085 8a62835
  23. Encoding settings                        : cabac=1 / ref=4 / deblock=1:0:0 / analyse=0x3:0x133 / me=umh / subme=7 / psy=1 / psy_rd=1.00:0.00 / mixed_ref=1 / me_range=16 / chroma_me=1 / trellis=1 / 8x8dct=1 / cqm=0 / deadzone=21,11 / fast_pskip=0 / chroma_qp_offset=-2 / threads=6 / sliced_threads=0 / nr=0 / decimate=1 / interlaced=0 / bluray_compat=0 / constrained_intra=0 / bframes=3 / b_pyramid=2 / b_adapt=1 / b_bias=0 / direct=3 / weightb=1 / open_gop=0 / weightp=2 / keyint=250 / keyint_min=25 / scenecut=40 / intra_refresh=0 / rc_lookahead=40 / rc=crf / mbtree=1 / crf=20.0 / qcomp=0.60 / qpmin=10 / qpmax=51 / qpstep=4 / ip_ratio=1.40 / aq=1:1.00
  24. Language                                 : English
  25. Default                                  : Yes
  26. Forced                                   : No
  27. Audio
  28. ID                                       : 2
  29. Format                                   : DTS
  30. Format/Info                              : Digital Theater Systems
  31. Mode                                     : 16
  32. Format settings, Endianness              : Big
  33. Codec ID                                 : A_DTS
  34. Duration                                 : 1h 38mn
  35. Bit rate mode                            : Constant
  36. Bit rate                                 : 1 509 Kbps
  37. Channel(s)                               : 6 channels
  38. Channel positions                        : Front: L C R, Side: L R, LFE
  39. Sampling rate                            : 48.0 KHz
  40. Frame rate                               : 93.750 fps (512 spf)
  41. Bit depth                                : 16 bits
  42. Compression mode                         : Lossy
  43. Stream size                              : 1.04 GiB (18%)
  44. Language                                 : English
  45. Default                                  : No
  46. Forced                                   : No
复制代码









                                       
                                       

                                       
                                       
                                       




回复

使用道具 举报

懒得打字嘛,点击右侧快捷回复 【右侧内容,后台自定义】
您需要登录后才可以回帖 登录 | 立即加入

本版积分规则

Archiver|小黑屋| 蓝光电影网 |网站地图

Copyright © 2021 Comsenz Inc. Powered by 蓝光电影网

蓝光电影网

本站内容由用户自主分享和转载自互联网,转载目的在于传递更多信息,并不代表本网赞同其观点和对其真实性负责。

如有侵权、违反国家法律政策行为,请联系我们,我们会第一时间及时清除和处理!

举报反馈邮箱:[email protected]

快速回复 返回顶部 返回列表