找回密码

蓝光电影网

查看: 13|回复: 0

[动作] 鲁邦三世:次元大介的墓碑/鲁邦三世:次元大介的墓标 Lupin.the.Third.Jigens.Gravestone.2014.1080p.BluRay.x264-BiPOLAR 3.28GB

[复制链接]
蓝光币
519
发表于 2019-8-26 04:10:36 | 显示全部楼层 |阅读模式


◎译  名 鲁邦三世:次元大介的墓碑 / 鲁邦三世:次元大介的墓标
◎片  名 LUPIN THE IIIRD 次元大介の墓標
◎年  代 2014
◎产  地 日本
◎类  别 行动 / 动画 / 犯罪
◎语  言 日语
◎上映日期 2014-06-21(日本)
◎IMDb评分  7.2/10 from 338 users
◎IMDb链接  http://www.imdb.com/title/tt3830998
◎豆瓣评分 8.7/10 from 1602 users
◎豆瓣链接 https://movie.douban.com/subject/25850319/
◎片  长 51分钟
◎导  演 小池健 Takeshi Koike
◎编  剧 高橋悠也
◎主  演 栗田贯一 Kanichi Kurita
       小林清志 Kiyoshi Kobayashi
       泽城美雪 Miyuki Sawashiro
       山寺宏一 K?ichi Yamadera
       广濑彰勇

◎标  签 鲁邦三世 | 动画 | 日本 | 戏院版 | 日本动画 | 2014 | 动漫 | 行动
◎简  介  
  《鲁邦三世 次元大介的墓碑》是该系列继2012年4月《鲁邦三世~名为峰不贰子的女人~》以后推出的又一部外传,配角换成了孤高枪手次元大介,报告他夺取方针、与强敌对决,以及若何成为鲁邦三世同伴的故事。
  鲁邦三世与次元大介为了获得秘宝“小小彗星”潜入东德洛阿。东德洛阿由于本国的著名歌手 玛尔塔在邻国西德洛阿被刺杀而与该国进入一触即发的严重状态。鲁邦三世与次元大介成功得 到了“小小彗星”,但在逃走时,次元大介被狙击。
  是谁狙击了次元大介?为了什么?看到穿过身材的子弹,次元留意到这与在西德洛阿被暗杀的 歌手的子弹是一样的。
  次元大介与鲁邦一路来到墓地。两人惊奇地发现那边居然有“次元大介”的宅兆 !
  从这个信息次元大介猜测出监犯,那就是在暗杀前会提早为死者预备宅兆的奥崎,没人能从他 的暗杀下逃出。
  鲁邦与次元两人潜入奥崎的奥秘小屋,从一间房间的屏幕上看到了被软禁的不贰子!这时,奥 崎出现。
  对决的时辰来到了。打破寂静的枪声!被打中的是——!
  再会了,次元……!
  1. Video
  2. ID                                       : 1
  3. Format                                   : AVC
  4. Format/Info                              : Advanced Video Codec
  5. Format profile                           : [email protected]
  6. Format settings, CABAC                   : Yes
  7. Format settings, ReFrames                : 4 frames
  8. Codec ID                                 : V_MPEG4/ISO/AVC
  9. Duration                                 : 51mn 44s
  10. Bit rate                                 : 6 074 Kbps
  11. Width                                    : 1 920 pixels
  12. Height                                   : 1 080 pixels
  13. Display aspect ratio                     : 16:9
  14. Frame rate mode                          : Constant
  15. Frame rate                               : 23.976 fps
  16. Color space                              : YUV
  17. Chroma subsampling                       : 4:2:0
  18. Bit depth                                : 8 bits
  19. Scan type                                : Progressive
  20. Bits/(Pixel*Frame)                       : 0.122
  21. Stream size                              : 2.20 GiB (67%)
  22. Writing library                          : x264 core 148 r2665 a01e339
  23. Encoding settings                        : cabac=1 / ref=4 / deblock=1:0:0 / analyse=0x3:0x133 / me=umh / subme=7 / psy=1 / psy_rd=1.00:0.00 / mixed_ref=1 / me_range=16 / chroma_me=1 / trellis=1 / 8x8dct=1 / cqm=0 / deadzone=21,11 / fast_pskip=0 / chroma_qp_offset=-2 / threads=18 / lookahead_threads=3 / sliced_threads=0 / nr=0 / decimate=1 / interlaced=0 / bluray_compat=0 / constrained_intra=0 / bframes=3 / b_pyramid=2 / b_adapt=2 / b_bias=0 / direct=3 / weightb=1 / open_gop=0 / weightp=2 / keyint=250 / keyint_min=23 / scenecut=40 / intra_refresh=0 / rc_lookahead=50 / rc=2pass / mbtree=1 / bitrate=6074 / ratetol=1.0 / qcomp=0.60 / qpmin=0 / qpmax=69 / qpstep=4 / cplxblur=20.0 / qblur=0.5 / ip_ratio=1.40 / aq=1:1.00
  24. Language                                 : English
  25. Default                                  : Yes
  26. Forced                                   : No

  27. Audio #1
  28. ID                                       : 2
  29. Format                                   : FLAC
  30. Format/Info                              : Free Lossless Audio Codec
  31. Codec ID                                 : A_FLAC
  32. Duration                                 : 51mn 44s
  33. Bit rate mode                            : Variable
  34. Bit rate                                 : 1 496 Kbps
  35. Channel(s)                               : 2 channels
  36. Channel positions                        : Front: L R
  37. Sampling rate                            : 48.0 KHz
  38. Frame rate                               : 11.719 fps (4096 spf)
  39. Bit depth                                : 24 bits
  40. Stream size                              : 554 MiB (16%)
  41. Writing library                          : libFLAC 1.2.1 (UTC 2007-09-17)
  42. Language                                 : Japanese
  43. Default                                  : Yes
  44. Forced                                   : No

  45. Audio #2
  46. ID                                       : 3
  47. Format                                   : FLAC
  48. Format/Info                              : Free Lossless Audio Codec
  49. Codec ID                                 : A_FLAC
  50. Duration                                 : 51mn 44s
  51. Bit rate mode                            : Variable
  52. Bit rate                                 : 1 496 Kbps
  53. Channel(s)                               : 2 channels
  54. Channel positions                        : Front: L R
  55. Sampling rate                            : 48.0 KHz
  56. Frame rate                               : 11.719 fps (4096 spf)
  57. Bit depth                                : 24 bits
  58. Stream size                              : 554 MiB (16%)
  59. Writing library                          : libFLAC 1.2.1 (UTC 2007-09-17)
  60. Language                                 : English
  61. Default                                  : No
  62. Forced                                   : No

  63. Text #1
  64. ID                                       : 4
  65. Format                                   : UTF-8
  66. Codec ID                                 : S_TEXT/UTF8
  67. Codec ID/Info                            : UTF-8 Plain Text
  68. Duration                                 : 50mn 44s
  69. Bit rate                                 : 54 bps
  70. Count of elements                        : 513
  71. Stream size                              : 20.2 KiB (0%)
  72. Title                                    : full
  73. Language                                 : English
  74. Default                                  : Yes
  75. Forced                                   : Yes

  76. Text #2
  77. ID                                       : 5
  78. Format                                   : UTF-8
  79. Codec ID                                 : S_TEXT/UTF8
  80. Codec ID/Info                            : UTF-8 Plain Text
  81. Duration                                 : 50mn 44s
  82. Bit rate                                 : 0 bps
  83. Count of elements                        : 9
  84. Stream size                              : 358 Bytes (0%)
  85. Title                                    : forced
  86. Language                                 : English
  87. Default                                  : No
  88. Forced                                   : No

  89. Menu
  90. 00:00:00.000                             : en:00:00:00.000
  91. 00:00:39.081                             : en:00:00:39.081
  92. 00:11:40.742                             : en:00:11:40.742
  93. 00:24:33.597                             : en:00:24:33.597
  94. 00:26:22.164                             : en:00:26:22.164
  95. 00:27:02.830                             : en:00:27:02.830
  96. 00:36:40.407                             : en:00:36:40.407
  97. 00:49:30.176                             : en:00:49:30.176
  98. 00:51:18.075                             : en:00:51:18.075
复制代码




                                       
                                       

                                       
                                       
                                       




回复

使用道具 举报

懒得打字嘛,点击右侧快捷回复 【右侧内容,后台自定义】
您需要登录后才可以回帖 登录 | 立即加入

本版积分规则

Archiver|小黑屋| 蓝光电影网 |网站地图

Copyright © 2021 Comsenz Inc. Powered by 蓝光电影网

蓝光电影网

本站内容由用户自主分享和转载自互联网,转载目的在于传递更多信息,并不代表本网赞同其观点和对其真实性负责。

如有侵权、违反国家法律政策行为,请联系我们,我们会第一时间及时清除和处理!

举报反馈邮箱:[email protected]

快速回复 返回顶部 返回列表