找回密码

蓝光电影网

查看: 11|回复: 0

[剧情] 夜幕 Nightfall.1956.1080p.BluRay.REMUX.AVC.LPCM.1.0-FGT 20.51GB

[复制链接]
蓝光币
515
发表于 2019-6-27 02:10:03 | 显示全部楼层 |阅读模式


◎译  名 夜幕
◎片  名 Nightfall
◎年  代 1957
◎产  地 美国
◎类  别 剧情 / 犯罪 / 黑色电影
◎语  言 英语
◎上映日期 1957-01-23
◎IMDb评分  7.2/10 from 2606 users
◎IMDb链接  http://www.imdb.com/title/tt0049552
◎豆瓣评分 6.6/10 from 78 users
◎豆瓣链接 https://movie.douban.com/subject/2062585/
◎片  长 78 分钟
◎导  演 雅克·特纳 Jacques Tourneur
◎编  剧 Stirling Silliphant / David Goodis
◎主  演 Aldo Ray
      Brian Keith
      Anne Bancroft

◎标  签 美国 | Jacques_Tourneur | 黑色电影 | 1950s | 黑色 | 犯罪 | 黑白 | 雅克·特纳
◎简  介  
  暂无相关剧情先容
  1. Video
  2. ID                                       : 1
  3. Format                                   : AVC
  4. Format/Info                              : Advanced Video Codec
  5. Format profile                           : [email protected]
  6. Format settings                          : CABAC / 3 Ref Frames
  7. Format settings, CABAC                   : Yes
  8. Format settings, ReFrames                : 3 frames
  9. Codec ID                                 : V_MPEG4/ISO/AVC
  10. Duration                                 : 1 h 18 min
  11. Bit rate mode                            : Variable
  12. Bit rate                                 : 35.0 Mb/s
  13. Maximum bit rate                         : 38.0 Mb/s
  14. Width                                    : 1 920 pixels
  15. Height                                   : 1 080 pixels
  16. Display aspect ratio                     : 16:9
  17. Frame rate mode                          : Constant
  18. Frame rate                               : 23.976 (24000/1001) FPS
  19. Color space                              : YUV
  20. Chroma subsampling                       : 4:2:0
  21. Bit depth                                : 8 bits
  22. Scan type                                : Progressive
  23. Bits/(Pixel*Frame)                       : 0.704
  24. Stream size                              : 19.2 GiB (94%)
  25. Title                                    : Nightfall.1956.1080p.BluRay.REMUX.AVC.LPCM.1.0-FGT
  26. Writing library                          : x264 core 157 r2935 545de2f
  27. Encoding settings                        : cabac=1 / ref=4 / deblock=1:-1:-1 / analyse=0x3:0x133 / me=umh / subme=10 / psy=1 / psy_rd=1.00:0.15 / mixed_ref=1 / me_range=24 / chroma_me=1 / trellis=2 / 8x8dct=1 / cqm=0 / deadzone=21,11 / fast_pskip=1 / chroma_qp_offset=-6 / threads=18 / lookahead_threads=1 / sliced_threads=0 / slices=4 / nr=0 / decimate=1 / interlaced=0 / bluray_compat=1 / stitchable=1 / constrained_intra=0 / bframes=3 / b_pyramid=1 / b_adapt=2 / b_bias=0 / direct=3 / weightb=1 / open_gop=1 / weightp=1 / keyint=24 / keyint_min=1 / scenecut=40 / intra_refresh=0 / rc_lookahead=24 / rc=2pass / mbtree=0 / bitrate=35000 / ratetol=0.9 / qcomp=1.00 / qpmin=1 / qpmax=69 / qpstep=4 / cplxblur=20.0 / qblur=0.5 / vbv_maxrate=38000 / vbv_bufsize=30000 / nal_hrd=vbr / filler=0 / ip_ratio=1.40 / pb_ratio=1.30 / aq=1:1.00
  28. Language                                 : English
  29. Default                                  : No
  30. Forced                                   : No
  31. Color range                              : Limited
  32. Color primaries                          : BT.709
  33. Transfer characteristics                 : BT.709
  34. Matrix coefficients                      : BT.709
  35. Audio #1
  36. ID                                       : 2
  37. Format                                   : PCM
  38. Format settings                          : Little / Signed
  39. Codec ID                                 : A_PCM/INT/LIT
  40. Duration                                 : 1 h 18 min
  41. Bit rate mode                            : Constant
  42. Bit rate                                 : 1 152 kb/s
  43. Sampling rate                            : 48.0 kHz
  44. Frame rate                               : 30.000 FPS (1600 SPF)
  45. Bit depth                                : 24 bits
  46. Stream size                              : 650 MiB (3%)
  47. Title                                    : Nightfall.1956.1080p.BluRay.REMUX.AVC.LPCM.1.0-FGT
  48. Language                                 : English
  49. Default                                  : Yes
  50. Forced                                   : No
  51. Audio #2
  52. ID                                       : 3
  53. Format                                   : PCM
  54. Format settings                          : Little / Signed
  55. Codec ID                                 : A_PCM/INT/LIT
  56. Duration                                 : 1 h 18 min
  57. Bit rate mode                            : Constant
  58. Bit rate                                 : 1 152 kb/s
  59. Sampling rate                            : 48.0 kHz
  60. Frame rate                               : 30.000 FPS (1600 SPF)
  61. Bit depth                                : 24 bits
  62. Stream size                              : 650 MiB (3%)
  63. Title                                    : Nightfall.1956.1080p.BluRay.REMUX.AVC.LPCM.1.0-FGT
  64. Language                                 : English
  65. Default                                  : No
  66. Forced                                   : No
  67. Text
  68. ID                                       : 4
  69. Format                                   : PGS
  70. Muxing mode                              : zlib
  71. Codec ID                                 : S_HDMV/PGS
  72. Codec ID/Info                            : Picture based subtitle format used on BDs/HD-DVDs
  73. Duration                                 : 1 h 17 min
  74. Bit rate                                 : 39.1 kb/s
  75. Count of elements                        : 2228
  76. Stream size                              : 21.8 MiB (0%)
  77. Title                                    : English-PGS
  78. Language                                 : English
  79. Default                                  : Yes
  80. Forced                                   : No
  81. Menu
  82. 00:00:00.000                             : en:Chapter 01
  83. 00:08:02.064                             : en:Chapter 02
  84. 00:14:55.269                             : en:Chapter 03
  85. 00:19:19.616                             : en:Chapter 04
  86. 00:25:42.249                             : en:Chapter 05
  87. 00:30:13.770                             : en:Chapter 06
  88. 00:34:14.343                             : en:Chapter 07
  89. 00:41:55.387                             : en:Chapter 08
  90. 00:48:26.987                             : en:Chapter 09
  91. 00:54:17.462                             : en:Chapter 10
  92. 01:00:30.460                             : en:Chapter 11
  93. 01:08:43.202                             : en:Chapter 12
复制代码






                                       
                                       

                                       
                                       
                                       




回复

使用道具 举报

懒得打字嘛,点击右侧快捷回复 【右侧内容,后台自定义】
您需要登录后才可以回帖 登录 | 立即加入

本版积分规则

Archiver|小黑屋| 蓝光电影网 |网站地图

Copyright © 2021 Comsenz Inc. Powered by 蓝光电影网

蓝光电影网

本站内容由用户自主分享和转载自互联网,转载目的在于传递更多信息,并不代表本网赞同其观点和对其真实性负责。

如有侵权、违反国家法律政策行为,请联系我们,我们会第一时间及时清除和处理!

举报反馈邮箱:[email protected]

快速回复 返回顶部 返回列表