找回密码

蓝光电影网

查看: 11|回复: 0

[动作] 恶童 Tekkonkinkreet.2006.iNTERNAL.1080p.BluRay.x264-WaLMaRT 6.55GB

[复制链接]
蓝光币
515
发表于 2019-8-26 03:42:39 | 显示全部楼层 |阅读模式


◎译  名 恶童 / Tekkon kinkreet / 恶童当街
◎片  名 鉄コン筋クリート
◎年  代 2006
◎产  地 日本
◎类  别 行动 / 动画 / 犯罪 / 冒险
◎语  言 日语
◎上映日期 2006-12-23(日本)
◎IMDb评分  7.6/10 from 11623 users
◎IMDb链接  http://www.imdb.com/title/tt0831888
◎豆瓣评分 8.6/10 from 54394 users
◎豆瓣链接 https://movie.douban.com/subject/1848925/
◎片  长 111分钟
◎导  演 迈克尔·艾里亚斯 Michael Arias
◎编  剧 安东尼·温特劳布 Anthony Weintraub / 松本大洋 Taiy? Matsumoto
◎主  演 二宫和也 Kazunari Ninomiya
       苍井优 Yu Aoi
       伊势谷友介 Y?suke Iseya
       宫藤官九郎 Kankur? Kud?
       大森南朋 Nao Omori

◎标  签 动画 | 日本 | 恶童 | 日本动画 | 松本大洋 | 苍井优 | 动画片 | 2007
◎简  介  
  宝町是一座与时代成长摆脱、生齿麋集的中型产业城市,全日响着霹雷隆机械操纵的声音。小黑和小白是被称之为“猫党”的人,可以腾空在城市顶端,可以滑落在纵深空间,小黑会拿着铁棍来狂扁他不喜好的大人,小白则有着自己天真的设想天下。宝町是一个没有未来的城市,直到一家叫“KIDDY KASTLE”的公司来到这里并想把宝町革新成他们想要的样子时,恶童们晓得这是为自己的生活和城市、更是为自己的灵魂而战役的时辰了。
  这座城市的没有法则、自在安闲、清新空气、游乐设备都是属于宝町独占的!
◎获奖情况  
  第31届日本电影学院奖(2008)
  最好动画片
  1. Video
  2. ID                                       : 1
  3. Format                                   : AVC
  4. Format/Info                              : Advanced Video Codec
  5. Format profile                           : [email protected]
  6. Format settings                          : CABAC / 5 Ref Frames
  7. Format settings, CABAC                   : Yes
  8. Format settings, Reference frames        : 5 frames
  9. Codec ID                                 : V_MPEG4/ISO/AVC
  10. Duration                                 : 1 h 50 min
  11. Bit rate                                 : 7 201 kb/s
  12. Width                                    : 1 920 pixels
  13. Height                                   : 816 pixels
  14. Display aspect ratio                     : 2.35:1
  15. Frame rate mode                          : Constant
  16. Frame rate                               : 23.976 (23976/1000) FPS
  17. Color space                              : YUV
  18. Chroma subsampling                       : 4:2:0
  19. Bit depth                                : 8 bits
  20. Scan type                                : Progressive
  21. Bits/(Pixel*Frame)                       : 0.192
  22. Stream size                              : 5.56 GiB (85%)
  23. Writing library                          : x264 core 142 r2491 24e4fed
  24. Encoding settings                        : cabac=1 / ref=5 / deblock=1:0:0 / analyse=0x3:0x113 / me=umh / subme=8 / psy=1 / psy_rd=1.00:0.00 / mixed_ref=1 / me_range=16 / chroma_me=1 / trellis=1 / 8x8dct=1 / cqm=0 / deadzone=21,11 / fast_pskip=1 / chroma_qp_offset=-2 / threads=12 / lookahead_threads=2 / sliced_threads=0 / nr=0 / decimate=1 / interlaced=0 / bluray_compat=0 / constrained_intra=0 / bframes=3 / b_pyramid=2 / b_adapt=2 / b_bias=0 / direct=3 / weightb=1 / open_gop=0 / weightp=2 / keyint=250 / keyint_min=23 / scenecut=40 / intra_refresh=0 / rc_lookahead=50 / rc=2pass / mbtree=1 / bitrate=7201 / ratetol=1.0 / qcomp=0.60 / qpmin=0 / qpmax=69 / qpstep=4 / cplxblur=20.0 / qblur=0.5 / ip_ratio=1.40 / aq=1:1.00
  25. Default                                  : Yes
  26. Forced                                   : No
  27. Audio #1
  28. ID                                       : 3
  29. Format                                   : AC-3
  30. Format/Info                              : Audio Coding 3
  31. Commercial name                          : Dolby Digital
  32. Codec ID                                 : A_AC3
  33. Duration                                 : 1 h 50 min
  34. Bit rate mode                            : Constant
  35. Bit rate                                 : 640 kb/s
  36. Channel(s)                               : 6 channels
  37. Channel layout                           : L R C LFE Ls Rs
  38. Sampling rate                            : 48.0 kHz
  39. Frame rate                               : 31.250 FPS (1536 SPF)
  40. Bit depth                                : 16 bits
  41. Compression mode                         : Lossy
  42. Stream size                              : 506 MiB (8%)
  43. Title                                    : Jap
  44. Language                                 : Japanese
  45. Service kind                             : Complete Main
  46. Default                                  : Yes
  47. Forced                                   : No
  48. Audio #2
  49. ID                                       : 4
  50. Format                                   : AC-3
  51. Format/Info                              : Audio Coding 3
  52. Commercial name                          : Dolby Digital
  53. Codec ID                                 : A_AC3
  54. Duration                                 : 1 h 50 min
  55. Bit rate mode                            : Constant
  56. Bit rate                                 : 640 kb/s
  57. Channel(s)                               : 6 channels
  58. Channel layout                           : L R C LFE Ls Rs
  59. Sampling rate                            : 48.0 kHz
  60. Frame rate                               : 31.250 FPS (1536 SPF)
  61. Bit depth                                : 16 bits
  62. Compression mode                         : Lossy
  63. Stream size                              : 506 MiB (8%)
  64. Title                                    : Eng
  65. Language                                 : English
  66. Service kind                             : Complete Main
  67. Default                                  : No
  68. Forced                                   : No
  69. Text
  70. ID                                       : 2
  71. Format                                   : UTF-8
  72. Codec ID                                 : S_TEXT/UTF8
  73. Codec ID/Info                            : UTF-8 Plain Text
  74. Duration                                 : 1 h 43 min
  75. Bit rate                                 : 38 b/s
  76. Count of elements                        : 1090
  77. Stream size                              : 28.8 KiB (0%)
  78. Title                                    : Eng
  79. Language                                 : English
  80. Default                                  : Yes
  81. Forced                                   : No
复制代码






                                       
                                       

                                       
                                       
                                       




回复

使用道具 举报

懒得打字嘛,点击右侧快捷回复 【右侧内容,后台自定义】
您需要登录后才可以回帖 登录 | 立即加入

本版积分规则

Archiver|小黑屋| 蓝光电影网 |网站地图

Copyright © 2021 Comsenz Inc. Powered by 蓝光电影网

蓝光电影网

本站内容由用户自主分享和转载自互联网,转载目的在于传递更多信息,并不代表本网赞同其观点和对其真实性负责。

如有侵权、违反国家法律政策行为,请联系我们,我们会第一时间及时清除和处理!

举报反馈邮箱:[email protected]

快速回复 返回顶部 返回列表