找回密码

蓝光电影网

查看: 26|回复: 0

[喜剧] 我恨情人节 I.Hate.Valentines.Day.2009.1080p.BluRay.x264.DTS-FGT 8.33GB

[复制链接]
蓝光币
515
发表于 2020-11-24 08:29:56 | 显示全部楼层 |阅读模式


◎译  名 我恨情人节
◎片  名 I Hate Valentine's Day
◎年  代 2009
◎产  地 美国
◎类  别 笑剧 / 恋爱
◎语  言 英语
◎上映日期 2009-04-24
◎IMDb评分  4.7/10 from 8160 users
◎IMDb链接  https://www.imdb.com/title/tt0762105/
◎豆瓣评分 5.4/10 from 1945 users
◎豆瓣链接 https://movie.douban.com/subject/3114134/
◎片  长 98分钟
◎导  演 妮娅·瓦达拉斯 Nia Vardalos
◎编  剧 妮娅·瓦达拉斯 Nia Vardalos
◎主  演 约翰·考伯特 John Corbett
       妮娅·瓦达拉斯 Nia Vardalos
       史蒂芬·瓜里诺 Stephen Guarino
       阿米尔·阿里森 Amir Arison
       瓦德·霍尔顿 Ward Horton
       佐伊·卡赞 Zoe Kazan
       本·施瓦茨 Ben Schwartz
       加里·维尔姆斯 Gary Wilmes
◎标  签 恋爱 | 美国 | 笑剧 | 美国电影 | 2009 | 我恨情人节 | 电影 | JohnCorbett
◎简  介


  身为花店的老板娘,珍娜(妮娅·瓦达拉斯 Nia Vardalos 饰)美丽的表面和开畅的本性为她赢得了诸多的追求者,而她至今仍然单身的缘由也成了众民气中无解的谜。对于约会,珍娜有着自己的原则——和同一个汉子停止的约会次数绝不跨越5次,若要深究这一原则的成因,则会震动珍娜埋藏在心底的关于母亲的回忆。珍娜这一有点可笑的原则引发了餐厅老板格雷(约翰·考伯特 John Corbett 饰)对她的爱好,他决议应战一下所谓的5次原则。
  
  随着领会的深入,珍娜对诙谐滑稽的格雷非常中意,格雷对珍娜的态度也渐渐的认真起来。而当5次约会的序幕邻近之时,碍于颜面的两人都没法说出挽留的话语,一对天设地造的情侣眼看着就要擦肩而过。
  1. Video
  2. ID                                       : 1
  3. Format                                   : AVC
  4. Format/Info                              : Advanced Video Codec
  5. Format profile                           : [email protected]
  6. Format settings                          : CABAC / 4 Ref Frames
  7. Format settings, CABAC                   : Yes
  8. Format settings, Reference frames        : 4 frames
  9. Codec ID                                 : V_MPEG4/ISO/AVC
  10. Duration                                 : 1 h 29 min
  11. Bit rate                                 : 11.6 Mb/s
  12. Width                                    : 1 920 pixels
  13. Height                                   : 1 040 pixels
  14. Display aspect ratio                     : 1.85:1
  15. Frame rate mode                          : Constant
  16. Frame rate                               : 23.976 FPS
  17. Color space                              : YUV
  18. Chroma subsampling                       : 4:2:0
  19. Bit depth                                : 8 bits
  20. Scan type                                : Progressive
  21. Bits/(Pixel*Frame)                       : 0.242
  22. Stream size                              : 7.22 GiB (87%)
  23. Writing library                          : x264 core 80 r1376 3feaec2
  24. Encoding settings                        : cabac=1 / ref=4 / deblock=1:0:0 / analyse=0x3:0x133 / me=umh / subme=7 / psy=1 / psy_rd=1.0:0.0 / mixed_ref=1 / me_range=16 / chroma_me=1 / trellis=1 / 8x8dct=1 / cqm=0 / deadzone=21,11 / fast_pskip=0 / chroma_qp_offset=-2 / threads=6 / sliced_threads=0 / nr=0 / decimate=1 / mbaff=0 / constrained_intra=0 / bframes=3 / b_pyramid=0 / b_adapt=1 / b_bias=0 / direct=3 / wpredb=1 / wpredp=2 / keyint=250 / keyint_min=25 / scenecut=40 / rc_lookahead=40 / rc=crf / mbtree=1 / crf=20.0 / qcomp=0.60 / qpmin=10 / qpmax=51 / qpstep=4 / ip_ratio=1.40 / aq=1:1.00
  25. Language                                 : English
  26. Default                                  : Yes
  27. Forced                                   : No

  28. Audio
  29. ID                                       : 2
  30. Format                                   : DTS
  31. Format/Info                              : Digital Theater Systems
  32. Codec ID                                 : A_DTS
  33. Duration                                 : 1 h 29 min
  34. Bit rate mode                            : Constant
  35. Bit rate                                 : 1 509 kb/s
  36. Channel(s)                               : 6 channels
  37. Channel layout                           : C L R Ls Rs LFE
  38. Sampling rate                            : 48.0 kHz
  39. Frame rate                               : 93.750 FPS (512 SPF)
  40. Bit depth                                : 16 bits
  41. Compression mode                         : Lossy
  42. Stream size                              : 964 MiB (11%)
  43. Language                                 : English
  44. Default                                  : No
  45. Forced                                   : No

  46. Menu
  47. 00:00:00.000                             : en:00:00:00.000
  48. 00:08:18.206                             : en:00:08:18.206
  49. 00:18:41.704                             : en:00:18:41.704
  50. 00:23:26.071                             : en:00:23:26.071
  51. 00:29:40.529                             : en:00:29:40.529
  52. 00:38:30.308                             : en:00:38:30.308
  53. 00:45:23.804                             : en:00:45:23.804
  54. 00:51:16.448                             : en:00:51:16.448
  55. 01:00:09.523                             : en:01:00:09.523
  56. 01:09:50.603                             : en:01:09:50.603
  57. 01:14:32.802                             : en:01:14:32.802
  58. 01:21:01.148                             : en:01:21:01.148
复制代码









                                       
                                       

                                       
                                       
                                       




回复

使用道具 举报

懒得打字嘛,点击右侧快捷回复 【右侧内容,后台自定义】
您需要登录后才可以回帖 登录 | 立即加入

本版积分规则

Archiver|小黑屋| 蓝光电影网 |网站地图

Copyright © 2021 Comsenz Inc. Powered by 蓝光电影网

蓝光电影网

本站内容由用户自主分享和转载自互联网,转载目的在于传递更多信息,并不代表本网赞同其观点和对其真实性负责。

如有侵权、违反国家法律政策行为,请联系我们,我们会第一时间及时清除和处理!

举报反馈邮箱:[email protected]

快速回复 返回顶部 返回列表