找回密码

蓝光电影网

查看: 22|回复: 0

[其他] 复核调查 Contre-enquete.2007.FRENCH.1080p.BluRay.x264.DTS-FGT 6.56GB

[复制链接]
蓝光币
519
发表于 2020-10-2 10:49:54 | 显示全部楼层 |阅读模式


◎译  名 复核观察/Counter Investigation
◎片  名 Contre-enquête
◎年  代 2007
◎产  地 法国
◎类  别 犯罪
◎语  言 法语
◎上映日期 2007-03-07
◎IMDb评分  6.7/10 from 2982 users
◎IMDb链接  https://www.imdb.com/title/tt0825239/
◎豆瓣评分 7.5/10 from 1317 users
◎豆瓣链接 https://movie.douban.com/subject/2020437/
◎片  长 81分钟
◎编  剧 劳伦斯·布洛克 Lawrence Block
◎主  演 Marc Samuel
       Arsène Mosca
       Nicolas Silberg
       Virginie Ledieu
       玛丽基亚尔 Marie Guillard
       让-弗朗索瓦·加罗 Jean-Fran?ois Garreaud
       雅克·弗朗茨 Jacques Frantz
       Sophie Barjac
       奥雷利安·雷克因 Aurélien Recoing
       让-皮埃尔·卡塞尔 Jean-Pierre Cassel
       让·杜雅尔丹 Jean Dujardin
       洛朗·吕卡 Laurent Lucas
◎标  签 法国 | 犯罪 | 悬疑 | 人性 | 复仇 | 法国电影 | 剧情 | 2007
◎简  介


  理查德(让·杜雅尔丹 Jean Dujardin 饰)和克莱尔(阿涅丝·布朗肖 Agnès Blanchot 饰)成婚多年,两人膝下哺育着心爱的小女儿,日子在安静当中布满了幸运。理查德是一位差人,克莱尔则是麻醉医师,两人的工作都非常忙碌,是以年幼的女儿经常必须面临单独待在家中的情境。
  
  悲剧就这样发生了,一个心理变态的罪犯潜入了家中,将女孩践踏杀死,经此凶讯,这个美满的家庭解体了。很快,怀疑人艾克曼(劳伦特·卢卡斯 Laurent Lucas 饰)被缉捕归案,虽然证据并不完整,但艾克曼还是被判处了三十年的刑期。就当众人以为事务就此告一段落之时,艾克曼寄给理查德的一封信却改变了一切。
  1. Video
  2. ID                                       : 1
  3. Format                                   : AVC
  4. Format/Info                              : Advanced Video Codec
  5. Format profile                           : [email protected]
  6. Format settings, CABAC                   : Yes
  7. Format settings, ReFrames                : 5 frames
  8. Codec ID                                 : V_MPEG4/ISO/AVC
  9. Duration                                 : 1h 24mn
  10. Bit rate                                 : 9 662 Kbps
  11. Width                                    : 1 920 pixels
  12. Height                                   : 816 pixels
  13. Display aspect ratio                     : 2.35:1
  14. Frame rate mode                          : Constant
  15. Frame rate                               : 23.976 fps
  16. Color space                              : YUV
  17. Chroma subsampling                       : 4:2:0
  18. Bit depth                                : 8 bits
  19. Scan type                                : Progressive
  20. Bits/(Pixel*Frame)                       : 0.257
  21. Stream size                              : 5.54 GiB (84%)
  22. Writing library                          : x264 core 128 r2216 198a7ea
  23. Encoding settings                        : cabac=1 / ref=5 / deblock=1:0:0 / analyse=0x3:0x113 / me=umh / subme=7 / psy=1 / psy_rd=1.00:0.00 / mixed_ref=1 / me_range=16 / chroma_me=1 / trellis=1 / 8x8dct=1 / cqm=0 / deadzone=21,11 / fast_pskip=0 / chroma_qp_offset=-2 / threads=3 / lookahead_threads=1 / sliced_threads=0 / nr=0 / decimate=1 / interlaced=0 / bluray_compat=0 / constrained_intra=0 / bframes=3 / b_pyramid=2 / b_adapt=1 / b_bias=0 / direct=1 / weightb=1 / open_gop=0 / weightp=2 / keyint=250 / keyint_min=23 / scenecut=40 / intra_refresh=0 / rc_lookahead=40 / rc=2pass / mbtree=1 / bitrate=9662 / ratetol=1.0 / qcomp=0.60 / qpmin=0 / qpmax=69 / qpstep=4 / cplxblur=20.0 / qblur=0.5 / ip_ratio=1.40 / aq=1:1.00
  24. Language                                 : French
  25. Default                                  : Yes
  26. Forced                                   : No
  27. Audio
  28. ID                                       : 2
  29. Format                                   : DTS
  30. Format/Info                              : Digital Theater Systems
  31. Mode                                     : 16
  32. Format settings, Endianness              : Big
  33. Codec ID                                 : A_DTS
  34. Duration                                 : 1h 24mn
  35. Bit rate mode                            : Constant
  36. Bit rate                                 : 1 509 Kbps
  37. Channel(s)                               : 6 channels
  38. Channel positions                        : Front: L C R, Side: L R, LFE
  39. Sampling rate                            : 48.0 KHz
  40. Bit depth                                : 24 bits
  41. Compression mode                         : Lossy
  42. Stream size                              : 907 MiB (14%)
  43. Language                                 : French
  44. Default                                  : Yes
  45. Forced                                   : No
  46. Text
  47. ID                                       : 3
  48. Format                                   : UTF-8
  49. Codec ID                                 : S_TEXT/UTF8
  50. Codec ID/Info                            : UTF-8 Plain Text
  51. Language                                 : English
  52. Default                                  : Yes
  53. Forced                                   : No
复制代码









                                       
                                       

                                       
                                       
                                       




回复

使用道具 举报

懒得打字嘛,点击右侧快捷回复 【右侧内容,后台自定义】
您需要登录后才可以回帖 登录 | 立即加入

本版积分规则

Archiver|小黑屋| 蓝光电影网 |网站地图

Copyright © 2021 Comsenz Inc. Powered by 蓝光电影网

蓝光电影网

本站内容由用户自主分享和转载自互联网,转载目的在于传递更多信息,并不代表本网赞同其观点和对其真实性负责。

如有侵权、违反国家法律政策行为,请联系我们,我们会第一时间及时清除和处理!

举报反馈邮箱:[email protected]

快速回复 返回顶部 返回列表