找回密码

蓝光电影网

查看: 17|回复: 0

[动作] X战警:天启/X战警:启示录 X-Men.Apocalypse.2016.1080p.BluRay.x264-SECTOR7 11.05GB

[复制链接]
蓝光币
511
发表于 2019-8-26 00:04:24 | 显示全部楼层 |阅读模式


◎译  名 X战警:天启 / X战警:启迪录 / 变种特攻:天启灭世战(港)
◎片  名 X-Men: Apocalypse
◎年  代 2016
◎产  地 美国
◎类  别 行动 / 科幻 / 奇异 / 冒险
◎语  言 英语 / 德语 / 阿拉伯语 / 波兰语 / 古埃及语
◎上映日期 2016-05-09(伦敦首映) / 2016-05-27(美国) / 2016-06-03(中国大陆)
◎IMDb评分  7.0/10 from 363806 users
◎IMDb链接  http://www.imdb.com/title/tt3385516
◎豆瓣评分 7.7/10 from 293697 users
◎豆瓣链接 https://movie.douban.com/subject/25786060/
◎片  长 144分钟
◎导  演 布莱恩·辛格 Bryan Singer
◎编  剧 布莱恩·辛格 Bryan Singer / 迈克尔·道赫蒂 Michael Dougherty / 丹·哈里斯 Dan Harris / 西蒙·金伯格 Simon Kinberg
◎主  演 詹姆斯·麦卡沃伊 James McAvoy
       迈克尔·法斯宾德 Michael Fassbender
       詹妮弗·劳伦斯 Jennifer Lawrence
       尼古拉斯·霍尔特 Nicholas Hoult
       奥斯卡·伊萨克 Oscar Isaac
       萝丝·拜恩 Rose Byrne
       埃文·彼得斯 Evan Peters
       休·杰克曼 Hugh Jackman
       乔什·赫尔曼 Josh Helman
       苏菲·特纳 Sophie Turner
       泰伊·谢里丹 Tye Sheridan
       卢卡斯·提尔 Lucas Till
       柯蒂·斯密特-麦菲 Kodi Smit-McPhee
       本·哈迪 Ben Hardy
       亚历山德拉·希普 Alexandra Shipp
       拉娜·康多 Lana Condor
       奥立薇娅·玛恩 Olivia Munn

◎标  签 科幻 | X战警 | 美国 | 超级豪杰 | Marvel | 漫威 | X-Men | 行动
◎简  介  
  变种人天启(奥斯卡·伊萨克 Oscar Isaac 饰)诞生于人类文化的最初步,被人类当做神一般敬佩跪拜,但是,这样的他,却遭到了他最鄙弃的人类的变节,被埋葬于废墟石砾之下,一晃眼就是数千年曩昔。
  一场意外使得沉睡千年的天启从混沌中醒来,重返人世的他却发现已经崇高的变种人,现在际遇非常糟糕。为了缔造一个属于变种人的新天下,他找到了狂风女(亚历山德拉·西普 Alexandra Shipp 饰)、灵蝶(奥立薇娅·玛恩 Olivia Munn 饰),天使(本·哈迪 Ben Hardy 饰),还有想要过普通生活却照旧遭到人类驱逐的万磁王(迈克尔·法斯宾德 Michael Fassbender 饰)组成了天启四骑士。在发觉到天启的意向后,X教授(詹姆斯·麦卡沃伊 James McAvoy 饰)率领着魔形女(詹妮弗·劳伦斯 Jennifer Lawrence 饰)、野兽(尼古拉斯·霍尔特 Nicholas Hoult 饰)和凤凰(索菲·特纳 Sophie Turner 饰)等人,立誓要破坏天启的诡计。
◎获奖情况  
  第15届美国视觉结果协会奖(2017)
  最好电影视觉结果分解(提名)
  第3届豆瓣电影年度榜单(2016)
  评分最高的外语电影(提名)
  最受关注的院线电影(提名)
  评分最高的科幻/行动片(提名)
  6月最受关注电影(提名)
  1. Video
  2. ID                                       : 4
  3. Format                                   : AVC
  4. Format/Info                              : Advanced Video Codec
  5. Format profile                           : [email protected]
  6. Format settings, CABAC                   : Yes
  7. Format settings, ReFrames                : 5 frames
  8. Codec ID                                 : V_MPEG4/ISO/AVC
  9. Duration                                 : 2h 23mn
  10. Bit rate                                 : 9 361 Kbps
  11. Width                                    : 1 920 pixels
  12. Height                                   : 800 pixels
  13. Display aspect ratio                     : 2.40:1
  14. Frame rate mode                          : Constant
  15. Frame rate                               : 23.976 (24000/1001) fps
  16. Color space                              : YUV
  17. Chroma subsampling                       : 4:2:0
  18. Bit depth                                : 8 bits
  19. Scan type                                : Progressive
  20. Bits/(Pixel*Frame)                       : 0.254
  21. Stream size                              : 9.20 GiB (84%)
  22. Writing library                          : x264 core 148 r2705 3f5ed56
  23. Encoding settings                        : cabac=1 / ref=5 / deblock=1:0:0 / analyse=0x3:0x113 / me=umh / subme=8 / psy=1 / psy_rd=1.00:0.00 / mixed_ref=1 / me_range=16 / chroma_me=1 / trellis=1 / 8x8dct=1 / cqm=0 / deadzone=21,11 / fast_pskip=1 / chroma_qp_offset=-2 / threads=12 / lookahead_threads=2 / sliced_threads=0 / nr=0 / decimate=1 / interlaced=0 / bluray_compat=0 / constrained_intra=0 / bframes=3 / b_pyramid=2 / b_adapt=2 / b_bias=0 / direct=3 / weightb=1 / open_gop=0 / weightp=2 / keyint=250 / keyint_min=23 / scenecut=40 / intra_refresh=0 / rc_lookahead=50 / rc=2pass / mbtree=1 / bitrate=9361 / ratetol=1.0 / qcomp=0.60 / qpmin=0 / qpmax=69 / qpstep=4 / cplxblur=20.0 / qblur=0.5 / ip_ratio=1.40 / aq=1:1.00
  24. Default                                  : Yes
  25. Forced                                   : No
  26. Audio
  27. ID                                       : 1
  28. Format                                   : DTS
  29. Format/Info                              : Digital Theater Systems
  30. Format profile                           : ES Matrix / Core
  31. Mode                                     : 16
  32. Format settings, Endianness              : Big
  33. Codec ID                                 : A_DTS
  34. Duration                                 : 2h 23mn
  35. Bit rate mode                            : Constant
  36. Bit rate                                 : 1 509 Kbps
  37. Channel(s)                               : 7 channels / 6 channels
  38. Channel positions                        : Front: L C R, Side: L R, Back: C, LFE / Front: L C R, Side: L R, LFE
  39. Sampling rate                            : 48.0 KHz
  40. Frame rate                               : 93.750 fps (512 spf)
  41. Bit depth                                : 24 bits
  42. Compression mode                         : Lossy
  43. Stream size                              : 1.52 GiB (14%)
  44. Language                                 : English
  45. Default                                  : Yes
  46. Forced                                   : No
  47. Text #1
  48. ID                                       : 2
  49. Format                                   : UTF-8
  50. Codec ID                                 : S_TEXT/UTF8
  51. Codec ID/Info                            : UTF-8 Plain Text
  52. Title                                    : English Forced
  53. Language                                 : English
  54. Default                                  : Yes
  55. Forced                                   : Yes
  56. Text #2
  57. ID                                       : 3
  58. Format                                   : UTF-8
  59. Codec ID                                 : S_TEXT/UTF8
  60. Codec ID/Info                            : UTF-8 Plain Text
  61. Title                                    : English Full
  62. Language                                 : English
  63. Default                                  : No
  64. Forced                                   : No
  65. Menu
  66. 00:00:00.000                             : en:00:00:00.000
  67. 00:08:18.790                             : en:00:08:18.790
  68. 00:14:13.186                             : en:00:14:13.186
  69. 00:18:07.086                             : en:00:18:07.086
  70. 00:24:55.494                             : en:00:24:55.494
  71. 00:30:45.343                             : en:00:30:45.343
  72. 00:36:35.235                             : en:00:36:35.235
  73. 00:41:00.083                             : en:00:41:00.083
  74. 00:45:56.504                             : en:00:45:56.504
  75. 00:49:24.295                             : en:00:49:24.295
  76. 00:55:22.611                             : en:00:55:22.611
  77. 00:59:36.823                             : en:00:59:36.823
  78. 01:04:43.671                             : en:01:04:43.671
  79. 01:12:35.851                             : en:01:12:35.851
  80. 01:17:32.898                             : en:01:17:32.898
  81. 01:22:18.517                             : en:01:22:18.517
  82. 01:27:45.594                             : en:01:27:45.594
  83. 01:34:05.807                             : en:01:34:05.807
  84. 01:36:46.634                             : en:01:36:46.634
  85. 01:39:50.902                             : en:01:39:50.902
  86. 01:43:34.375                             : en:01:43:34.375
  87. 01:49:57.382                             : en:01:49:57.382
  88. 01:55:08.360                             : en:01:55:08.360
  89. 01:57:21.660                             : en:01:57:21.660
  90. 02:03:50.548                             : en:02:03:50.548
  91. 02:07:56.711                             : en:02:07:56.711
  92. 02:10:59.101                             : en:02:10:59.101
  93. 02:12:54.091                             : en:02:12:54.091
复制代码




                                       
                                       

                                       
                                       
                                       




回复

使用道具 举报

懒得打字嘛,点击右侧快捷回复 【右侧内容,后台自定义】
您需要登录后才可以回帖 登录 | 立即加入

本版积分规则

Archiver|小黑屋| 蓝光电影网 |网站地图

Copyright © 2021 Comsenz Inc. Powered by 蓝光电影网

蓝光电影网

本站内容由用户自主分享和转载自互联网,转载目的在于传递更多信息,并不代表本网赞同其观点和对其真实性负责。

如有侵权、违反国家法律政策行为,请联系我们,我们会第一时间及时清除和处理!

举报反馈邮箱:[email protected]

快速回复 返回顶部 返回列表