找回密码

蓝光电影网

查看: 10|回复: 0

[剧情] 魔鬼情人/欲色迷宫 Demonlover.2002.1080p.BluRay.REMUX.AVC.DTS-HD.MA.5.1-FGT 26.22GB

[复制链接]
蓝光币
519
发表于 2019-6-26 21:50:48 | 显示全部楼层 |阅读模式


◎译  名 魔鬼情人 / 欲色迷宫(台) / 虐欲禁区
◎片  名 Demonlover
◎年  代 2002
◎产  地 法国
◎类  别 剧情 / 悬疑 / 惊悚
◎语  言 法语 / 英语 / 日语
◎上映日期 2002-11-06(法国)
◎IMDb评分  5.9/10 from 4313 users
◎IMDb链接  http://www.imdb.com/title/tt0284034
◎豆瓣评分 6.1/10 from 200 users
◎豆瓣链接 https://movie.douban.com/subject/1395577/
◎片  长 129 分钟
◎导  演 Olivier Assayas
◎编  剧 Olivier Assayas
◎主  演 康妮·尼尔森 Connie Nielsen
      查尔斯·贝尔林 Charles Berling
      科洛·塞维尼 Chlo? Sevigny
      Dominique Reymond
      Jean-Baptiste Malartre

◎标  签 法国 | OlivierAssayas | 法国电影 | 魔鬼情人 | Olivier_Assayas | 2002 | 犯罪 | 悬疑
◎简  介  
  黛安娜在亨利-皮埃尔·沃尔夫开设的一家大型跨国公司工作。这家公司的营业范围非常普遍,从房地产到打扮设想,几近包罗万象,在各个范畴内都很是活跃。沃尔夫公司经过谈判收买了一家刊行新式漫画的日本公司,他们研发出一种数码三维图像漫画,这类全新的漫画将完全改变今朝市场的合作场面。
  有两家公司争取沃尔夫公司的这类新漫画在网上的刊行权:漫画天堂和魔鬼情人。为了争取自动,漫画天堂请黛安娜做产业特务,以获得关于魔鬼情人的情报材料。现实上魔鬼情人和一系列暴力与不法色情网页有亲近关系,这势需要使它在合作中处于晦气位置,虽然今朝沃尔夫公司还没有发现这一联系。黛安娜发现它也采纳了响应的情报战略,而且就在她那些概况中立的同事中有它的特务。她对这些黑暗的内幕领会得越多,渐渐成了魔鬼情人的眼中钉。
  现在,被卷入这场复杂纠葛中的黛安娜已经无路可退,她只能退入到收集的虚拟天下中。也许,她一路头就是这个虚拟天下的一部分。
◎获奖情况  
  第55届戛纳电影节(2002)
  主比赛单元 金棕榈奖(提名) 奥利维耶·阿萨亚斯

  1. Video
  2. ID                                       : 1
  3. Format                                   : AVC
  4. Format/Info                              : Advanced Video Codec
  5. Format profile                           : [email protected]
  6. Format settings                          : CABAC / 3 Ref Frames
  7. Format settings, CABAC                   : Yes
  8. Format settings, ReFrames                : 3 frames
  9. Codec ID                                 : V_MPEG4/ISO/AVC
  10. Duration                                 : 2 h 1 min
  11. Bit rate mode                            : Variable
  12. Bit rate                                 : 25.0 Mb/s
  13. Maximum bit rate                         : 36.0 Mb/s
  14. Width                                    : 1 920 pixels
  15. Height                                   : 1 080 pixels
  16. Display aspect ratio                     : 16:9
  17. Frame rate mode                          : Constant
  18. Frame rate                               : 23.976 (24000/1001) FPS
  19. Color space                              : YUV
  20. Chroma subsampling                       : 4:2:0
  21. Bit depth                                : 8 bits
  22. Scan type                                : Progressive
  23. Bits/(Pixel*Frame)                       : 0.503
  24. Stream size                              : 21.1 GiB (81%)
  25. Title                                    : Demonlover.2002.1080p.BluRay.REMUX.AVC.DTS-HD.MA.5.1-FGT
  26. Writing library                          : x264 core 157 r2935 545de2f
  27. Encoding settings                        : cabac=1 / ref=4 / deblock=1:1:0 / analyse=0x3:0x133 / me=umh / subme=10 / psy=1 / psy_rd=1.00:0.15 / mixed_ref=1 / me_range=24 / chroma_me=1 / trellis=2 / 8x8dct=1 / cqm=0 / deadzone=21,11 / fast_pskip=1 / chroma_qp_offset=-3 / threads=18 / lookahead_threads=1 / sliced_threads=0 / slices=4 / nr=0 / decimate=1 / interlaced=0 / bluray_compat=1 / stitchable=1 / constrained_intra=0 / bframes=3 / b_pyramid=1 / b_adapt=2 / b_bias=0 / direct=3 / weightb=1 / open_gop=1 / weightp=1 / keyint=24 / keyint_min=1 / scenecut=40 / intra_refresh=0 / rc_lookahead=24 / rc=2pass / mbtree=1 / bitrate=25000 / ratetol=0.1 / qcomp=0.90 / qpmin=0 / qpmax=69 / qpstep=4 / cplxblur=20.0 / qblur=0.5 / vbv_maxrate=36000 / vbv_bufsize=30000 / nal_hrd=vbr / filler=0 / ip_ratio=1.40 / aq=1:1.00
  28. Language                                 : English
  29. Default                                  : No
  30. Forced                                   : No
  31. Color range                              : Limited
  32. Color primaries                          : BT.709
  33. Transfer characteristics                 : BT.709
  34. Matrix coefficients                      : BT.709
  35. Audio #1
  36. ID                                       : 2
  37. Format                                   : DTS XLL
  38. Format/Info                              : Digital Theater Systems
  39. Commercial name                          : DTS-HD Master Audio
  40. Codec ID                                 : A_DTS
  41. Duration                                 : 2 h 1 min
  42. Bit rate mode                            : Variable
  43. Bit rate                                 : 4 138 kb/s
  44. Channel(s)                               : 6 channels
  45. Channel layout                           : C L R Ls Rs LFE
  46. Sampling rate                            : 48.0 kHz
  47. Frame rate                               : 93.750 FPS (512 SPF)
  48. Bit depth                                : 24 bits
  49. Compression mode                         : Lossless
  50. Stream size                              : 3.51 GiB (13%)
  51. Title                                    : Demonlover.2002.1080p.BluRay.REMUX.AVC.DTS-HD.MA.5.1-FGT
  52. Language                                 : English
  53. Default                                  : Yes
  54. Forced                                   : No
  55. Audio #2
  56. ID                                       : 3
  57. Format                                   : PCM
  58. Format settings                          : Little / Signed
  59. Codec ID                                 : A_PCM/INT/LIT
  60. Duration                                 : 2 h 1 min
  61. Bit rate mode                            : Constant
  62. Bit rate                                 : 1 536 kb/s
  63. Channel(s)                               : 2 channels
  64. Sampling rate                            : 48.0 kHz
  65. Frame rate                               : 30.000 FPS (1600 SPF)
  66. Bit depth                                : 16 bits
  67. Stream size                              : 1.30 GiB (5%)
  68. Title                                    : Demonlover.2002.1080p.BluRay.REMUX.AVC.DTS-HD.MA.5.1-FGT
  69. Language                                 : English
  70. Default                                  : No
  71. Forced                                   : No
  72. Audio #3
  73. ID                                       : 4
  74. Format                                   : AC-3
  75. Format/Info                              : Audio Coding 3
  76. Commercial name                          : Dolby Digital
  77. Codec ID                                 : A_AC3
  78. Duration                                 : 2 h 1 min
  79. Bit rate mode                            : Constant
  80. Bit rate                                 : 320 kb/s
  81. Channel(s)                               : 2 channels
  82. Channel layout                           : L R
  83. Sampling rate                            : 48.0 kHz
  84. Frame rate                               : 31.250 FPS (1536 SPF)
  85. Bit depth                                : 16 bits
  86. Compression mode                         : Lossy
  87. Stream size                              : 278 MiB (1%)
  88. Title                                    : Demonlover.2002.1080p.BluRay.REMUX.AVC.DTS-HD.MA.5.1-FGT
  89. Language                                 : French
  90. Service kind                             : Complete Main
  91. Default                                  : No
  92. Forced                                   : No
  93. Text #1
  94. ID                                       : 5
  95. Format                                   : PGS
  96. Muxing mode                              : zlib
  97. Codec ID                                 : S_HDMV/PGS
  98. Codec ID/Info                            : Picture based subtitle format used on BDs/HD-DVDs
  99. Duration                                 : 1 h 39 min
  100. Bit rate                                 : 11.3 kb/s
  101. Count of elements                        : 906
  102. Stream size                              : 8.03 MiB (0%)
  103. Title                                    : English-FORCED-PGS
  104. Language                                 : English
  105. Default                                  : No
  106. Forced                                   : No
  107. Text #2
  108. ID                                       : 6
  109. Format                                   : PGS
  110. Muxing mode                              : zlib
  111. Codec ID                                 : S_HDMV/PGS
  112. Codec ID/Info                            : Picture based subtitle format used on BDs/HD-DVDs
  113. Duration                                 : 2 h 0 min
  114. Bit rate                                 : 19.3 kb/s
  115. Count of elements                        : 1840
  116. Stream size                              : 16.7 MiB (0%)
  117. Title                                    : English-PGS
  118. Language                                 : English
  119. Default                                  : No
  120. Forced                                   : No
  121. Text #3
  122. ID                                       : 7
  123. Format                                   : PGS
  124. Muxing mode                              : zlib
  125. Codec ID                                 : S_HDMV/PGS
  126. Codec ID/Info                            : Picture based subtitle format used on BDs/HD-DVDs
  127. Duration                                 : 1 h 57 min
  128. Bit rate                                 : 40.7 kb/s
  129. Count of elements                        : 3194
  130. Stream size                              : 34.2 MiB (0%)
  131. Title                                    : English-SDH-PGS
  132. Language                                 : English
  133. Default                                  : No
  134. Forced                                   : No
  135. Menu
  136. 00:00:00.000                             : en:Chapter 01
  137. 00:09:17.932                             : en:Chapter 02
  138. 00:19:50.689                             : en:Chapter 03
  139. 00:30:37.585                             : en:Chapter 04
  140. 00:42:13.364                             : en:Chapter 05
  141. 00:49:32.094                             : en:Chapter 06
  142. 01:00:33.671                             : en:Chapter 07
  143. 01:07:34.508                             : en:Chapter 08
  144. 01:20:38.333                             : en:Chapter 09
  145. 01:28:48.531                             : en:Chapter 10
  146. 01:39:14.323                             : en:Chapter 11
  147. 01:54:23.231                             : en:Chapter 12
复制代码






                                       
                                       

                                       
                                       
                                       




回复

使用道具 举报

懒得打字嘛,点击右侧快捷回复 【右侧内容,后台自定义】
您需要登录后才可以回帖 登录 | 立即加入

本版积分规则

Archiver|小黑屋| 蓝光电影网 |网站地图

Copyright © 2021 Comsenz Inc. Powered by 蓝光电影网

蓝光电影网

本站内容由用户自主分享和转载自互联网,转载目的在于传递更多信息,并不代表本网赞同其观点和对其真实性负责。

如有侵权、违反国家法律政策行为,请联系我们,我们会第一时间及时清除和处理!

举报反馈邮箱:[email protected]

快速回复 返回顶部 返回列表