找回密码

蓝光电影网

查看: 244|回复: 0

[奇幻] 寻找奇迹水人/水人传说 The.Water.Man.2020.1080p.BluRay.REMUX.AVC.DTS-HD.MA.5.1-FGT 16.88GB

[复制链接]
蓝光币
511
发表于 2021-8-18 08:47:49 | 显示全部楼层 |阅读模式


◎译  名 寻觅奇迹水人/水人传闻(港)/海员
◎片  名 The Water Man
◎年  代 2020
◎产  地 美国
◎类  别 奇异 / 冒险
◎语  言 英语
◎上映日期 2020-09-19(多伦多电影节) / 2021-05-07(美国)
◎豆瓣评分 5.0/10 from 85 users
◎豆瓣链接 https://movie.douban.com/subject/33385881/
◎片  长 92分钟
◎导  演 大卫·奥伊罗 David Oyelowo
◎编  剧 艾玛·尼德尔 Emma Needell
◎主  演 大卫·奥伊罗 David Oyelowo
       罗莎里奥·道森 Rosario Dawson
       朗尼·查维斯 Lonnie Chavis
       阿米尔·米勒 Amiah Miller
       阿尔弗雷德·莫里纳 Alfred Molina
       玛丽亚·贝罗 Maria Bello
       特德·鲁尼 Ted Rooney
       霍尔顿·戈耶特 Holden Goyette
       艾拉·罗斯·帕克斯 Ella Rose Parks
       亚当·邓拉普 Adam Dunlap
       约翰·亨利·惠特克 John Henry Whitaker
       彼得·詹姆斯·德鲁卡 Peter James DeLuca
       丹尼尔·瓦西奇 Daniel Vasic
       凯尔·斯托尔茨 Kyle Stoltz
       切尔·怀特 Chel White
◎标  签 冒险 | 美国 | 奇异 | 家庭 | 亲情 | 长大 | 剧情 | 2020
◎简  介


  贡纳(朗尼·查维斯饰)为了拯救抱病的母亲(罗莎里奥·道森饰),起头寻觅把握永生奥秘的神话人物 — 水人。在获得奥秘确当地女孩乔(阿米尔·米勒饰)的帮助后,他们一路前往悠远的野马镇森林。但随着他们不竭深入,森林变得愈发陌生和危险。而贡纳的父亲(大卫·奥伊罗饰)是他们获救的唯一希望,他会不惜一切价格找到他们,并将在此进程中发现儿子的实在身份。
  1. Video
  2. ID                                       : 1
  3. ID in the original source medium         : 4113 (0x1011)
  4. Format                                   : AVC
  5. Format/Info                              : Advanced Video Codec
  6. Format profile                           : [email protected]
  7. Format settings                          : CABAC / 4 Ref Frames
  8. Format settings, CABAC                   : Yes
  9. Format settings, Reference frames        : 4 frames
  10. Codec ID                                 : V_MPEG4/ISO/AVC
  11. Duration                                 : 1 h 31 min
  12. Bit rate mode                            : Variable
  13. Bit rate                                 : 20.8 Mb/s
  14. Maximum bit rate                         : 30.0 Mb/s
  15. Width                                    : 1 920 pixels
  16. Height                                   : 1 080 pixels
  17. Display aspect ratio                     : 16:9
  18. Frame rate mode                          : Constant
  19. Frame rate                               : 24.000 FPS
  20. Color space                              : YUV
  21. Chroma subsampling                       : 4:2:0
  22. Bit depth                                : 8 bits
  23. Scan type                                : Progressive
  24. Bits/(Pixel*Frame)                       : 0.418
  25. Stream size                              : 13.3 GiB (79%)
  26. Language                                 : English
  27. Default                                  : No
  28. Forced                                   : No
  29. Original source medium                   : Blu-ray
  30. Audio #1
  31. ID                                       : 2
  32. ID in the original source medium         : 4352 (0x1100)
  33. Format                                   : DTS XLL
  34. Format/Info                              : Digital Theater Systems
  35. Commercial name                          : DTS-HD Master Audio
  36. Codec ID                                 : A_DTS
  37. Duration                                 : 1 h 31 min
  38. Bit rate mode                            : Variable
  39. Bit rate                                 : 3 583 kb/s
  40. Channel(s)                               : 6 channels
  41. Channel layout                           : C L R Ls Rs LFE
  42. Sampling rate                            : 48.0 kHz
  43. Frame rate                               : 93.750 FPS (512 SPF)
  44. Bit depth                                : 24 bits
  45. Compression mode                         : Lossless
  46. Stream size                              : 2.29 GiB (14%)
  47. Title                                    : DTS-HD MA 5.1
  48. Language                                 : English
  49. Default                                  : Yes
  50. Forced                                   : No
  51. Original source medium                   : Blu-ray
  52. Audio #2
  53. ID                                       : 3
  54. ID in the original source medium         : 4353 (0x1101)
  55. Format                                   : DTS XLL
  56. Format/Info                              : Digital Theater Systems
  57. Commercial name                          : DTS-HD Master Audio
  58. Codec ID                                 : A_DTS
  59. Duration                                 : 1 h 31 min
  60. Bit rate mode                            : Variable
  61. Bit rate                                 : 2 010 kb/s
  62. Channel(s)                               : 2 channels
  63. Channel layout                           : L R
  64. Sampling rate                            : 48.0 kHz
  65. Frame rate                               : 93.750 FPS (512 SPF)
  66. Bit depth                                : 24 bits
  67. Compression mode                         : Lossless
  68. Stream size                              : 1.28 GiB (8%)
  69. Title                                    : DTS-HD MA 2.0
  70. Language                                 : English
  71. Default                                  : No
  72. Forced                                   : No
  73. Original source medium                   : Blu-ray
  74. Text #1
  75. ID                                       : 4
  76. Format                                   : UTF-8
  77. Codec ID                                 : S_TEXT/UTF8
  78. Codec ID/Info                            : UTF-8 Plain Text
  79. Duration                                 : 1 h 30 min
  80. Bit rate                                 : 40 b/s
  81. Count of elements                        : 1125
  82. Stream size                              : 26.9 KiB (0%)
  83. Title                                    : SRT
  84. Language                                 : English
  85. Default                                  : Yes
  86. Forced                                   : No
  87. Text #2
  88. ID                                       : 5
  89. ID in the original source medium         : 4608 (0x1200)
  90. Format                                   : PGS
  91. Muxing mode                              : zlib
  92. Codec ID                                 : S_HDMV/PGS
  93. Codec ID/Info                            : Picture based subtitle format used on BDs/HD-DVDs
  94. Duration                                 : 1 h 31 min
  95. Bit rate                                 : 20.4 kb/s
  96. Count of elements                        : 2782
  97. Stream size                              : 13.3 MiB (0%)
  98. Language                                 : English
  99. Default                                  : No
  100. Forced                                   : No
  101. Original source medium                   : Blu-ray
  102. Text #3
  103. ID                                       : 6
  104. ID in the original source medium         : 4609 (0x1201)
  105. Format                                   : PGS
  106. Muxing mode                              : zlib
  107. Codec ID                                 : S_HDMV/PGS
  108. Codec ID/Info                            : Picture based subtitle format used on BDs/HD-DVDs
  109. Duration                                 : 1 h 30 min
  110. Bit rate                                 : 16.5 kb/s
  111. Count of elements                        : 1872
  112. Stream size                              : 10.7 MiB (0%)
  113. Language                                 : French
  114. Default                                  : No
  115. Forced                                   : No
  116. Original source medium                   : Blu-ray
  117. Text #4
  118. ID                                       : 7
  119. ID in the original source medium         : 4610 (0x1202)
  120. Format                                   : PGS
  121. Muxing mode                              : zlib
  122. Codec ID                                 : S_HDMV/PGS
  123. Codec ID/Info                            : Picture based subtitle format used on BDs/HD-DVDs
  124. Duration                                 : 1 h 30 min
  125. Bit rate                                 : 17.2 kb/s
  126. Count of elements                        : 1940
  127. Stream size                              : 11.1 MiB (0%)
  128. Language                                 : Spanish
  129. Default                                  : No
  130. Forced                                   : No
  131. Original source medium                   : Blu-ray
  132. Menu
  133. 00:00:00.000                             : Chapter 01
  134. 00:15:02.583                             : Chapter 02
  135. 00:30:01.416                             : Chapter 03
  136. 00:45:09.083                             : Chapter 04
  137. 01:00:26.958                             : Chapter 05
  138. 01:08:03.625                             : Chapter 06
  139. 01:15:05.500                             : Chapter 07
  140. 01:26:20.125                             : Chapter 08
复制代码






                                       
                                       

                                       
                                       
                                       




回复

使用道具 举报

懒得打字嘛,点击右侧快捷回复 【右侧内容,后台自定义】
您需要登录后才可以回帖 登录 | 立即加入

本版积分规则

Archiver|小黑屋| 蓝光电影网 |网站地图

Copyright © 2021 Comsenz Inc. Powered by 蓝光电影网

蓝光电影网

本站内容由用户自主分享和转载自互联网,转载目的在于传递更多信息,并不代表本网赞同其观点和对其真实性负责。

如有侵权、违反国家法律政策行为,请联系我们,我们会第一时间及时清除和处理!

举报反馈邮箱:[email protected]

快速回复 返回顶部 返回列表