找回密码

蓝光电影网

查看: 17|回复: 0

[其他] 鬼屋穿梭人/鬼屋穿梭人-穿梭猛鬼城 Spellcaster.1988.1080p.BluRay.x264-HANDJOB 6.88GB

[复制链接]
蓝光币
511
发表于 2020-10-1 18:21:24 | 显示全部楼层 |阅读模式


◎译  名 鬼屋穿越人/鬼屋穿越人-穿越猛鬼城
◎片  名 Spellcaster
◎年  代 1992
◎产  地 美国
◎类  别 悬疑 / 可骇
◎语  言 英语
◎上映日期 1992
◎IMDb评分  4.6/10 from 556 users
◎IMDb链接  https://www.imdb.com/title/tt0096153/
◎豆瓣评分 6.2/10 from 71 users
◎豆瓣链接 https://movie.douban.com/subject/4305325/
◎片  长 83 分钟
◎导  演 Rafal Zielinski
◎编  剧 埃德·纳哈 Ed Naha
◎主  演 Harold Pruett
       迈克尔·佐雷克 Michael Zorek
       盖尔.奥格雷迪 Gail O'Grady
       特蕾茜·林德 Traci Lind
       Michael Deak
       亚当·安特 Adam Ant
       金·约翰斯顿·乌尔里希 Kim Johnston Ulrich
       Richard Blade
◎标  签 可骇 | 美国电影 | 美国 | 惊悚 | 悬疑 | 补遗 | 美 | 还行
◎简  介


  A group of people are killed one by one while participating at a million dollar treasure hunt in a mysterious Italian castle.
  1. Video
  2. ID                                       : 1
  3. Format                                   : AVC
  4. Format/Info                              : Advanced Video Codec
  5. Format profile                           : [email protected]
  6. Format settings                          : CABAC / 4 Ref Frames
  7. Format settings, CABAC                   : Yes
  8. Format settings, Reference frames        : 4 frames
  9. Codec ID                                 : V_MPEG4/ISO/AVC
  10. Duration                                 : 1 h 23 min
  11. Bit rate                                 : 11.1 Mb/s
  12. Width                                    : 1 920 pixels
  13. Height                                   : 1 032 pixels
  14. Display aspect ratio                     : 1.85:1
  15. Frame rate mode                          : Constant
  16. Frame rate                               : 23.976 (24000/1001/189150) FPS
  17. Color space                              : YUV
  18. Chroma subsampling                       : 4:2:0
  19. Bit depth                                : 8 bits
  20. Scan type                                : Progressive
  21. Bits/(Pixel*Frame)                       : 0.233
  22. Stream size                              : 6.46 GiB (94%)
  23. Writing library                          : x264 core 148
  24. Encoding settings                        : cabac=1 / ref=4 / deblock=1:-3:-3 / analyse=0x3:0x133 / me=umh / subme=10 / psy=1 / psy_rd=1.00:0.00 / mixed_ref=1 / me_range=32 / chroma_me=1 / trellis=2 / 8x8dct=1 / cqm=0 / deadzone=21,11 / fast_pskip=0 / chroma_qp_offset=-2 / threads=12 / lookahead_threads=3 / sliced_threads=0 / nr=0 / decimate=0 / interlaced=0 / bluray_compat=0 / constrained_intra=0 / bframes=16 / b_pyramid=2 / b_adapt=2 / b_bias=0 / direct=3 / weightb=1 / open_gop=0 / weightp=2 / keyint=240 / keyint_min=24 / scenecut=40 / intra_refresh=0 / rc_lookahead=60 / rc=crf / mbtree=0 / crf=22.0 / qcomp=0.60 / qpmin=0 / qpmax=69 / qpstep=4 / vbv_maxrate=62500 / vbv_bufsize=78125 / crf_max=0.0 / nal_hrd=none / filler=0 / ip_ratio=1.40 / pb_ratio=1.30 / aq=2:1.00
  25. Default                                  : Yes
  26. Forced                                   : No
  27. Color range                              : Limited
  28. Color primaries                          : BT.709
  29. Transfer characteristics                 : BT.709
  30. Matrix coefficients                      : BT.709
  31. Audio
  32. ID                                       : 2
  33. Format                                   : FLAC
  34. Format/Info                              : Free Lossless Audio Codec
  35. Codec ID                                 : A_FLAC
  36. Duration                                 : 1 h 23 min
  37. Bit rate mode                            : Variable
  38. Bit rate                                 : 718 kb/s
  39. Channel(s)                               : 2 channels
  40. Sampling rate                            : 48.0 kHz
  41. Frame rate                               : 11.719 FPS (4096 SPF)
  42. Bit depth                                : 16 bits
  43. Compression mode                         : Lossless
  44. Stream size                              : 428 MiB (6%)
  45. Writing library                          : libFLAC 1.2.1 (UTC 2007-09-17)
  46. Language                                 : English
  47. Default                                  : Yes
  48. Forced                                   : No
  49. Text #1
  50. ID                                       : 3
  51. Format                                   : UTF-8
  52. Codec ID                                 : S_TEXT/UTF8
  53. Codec ID/Info                            : UTF-8 Plain Text
  54. Duration                                 : 1 h 17 min
  55. Bit rate                                 : 48 b/s
  56. Count of elements                        : 1073
  57. Stream size                              : 27.5 KiB (0%)
  58. Language                                 : English
  59. Default                                  : No
  60. Forced                                   : No
  61. Text #2
  62. ID                                       : 4
  63. Format                                   : UTF-8
  64. Codec ID                                 : S_TEXT/UTF8
  65. Codec ID/Info                            : UTF-8 Plain Text
  66. Duration                                 : 1 h 23 min
  67. Bit rate                                 : 64 b/s
  68. Count of elements                        : 1538
  69. Stream size                              : 39.2 KiB (0%)
  70. Title                                    : Hard of Hearing
  71. Language                                 : English
  72. Default                                  : No
  73. Forced                                   : No
  74. Menu
  75. 00:00:00.000                             : en:Chapter 01
  76. 00:20:37.737                             : en:Chapter 02
  77. 00:40:10.909                             : en:Chapter 03
  78. 01:00:33.130                             : en:Chapter 04
  79. 01:19:20.256                             : en:Chapter 05
复制代码





                                       
                                       

                                       
                                       
                                       




回复

使用道具 举报

懒得打字嘛,点击右侧快捷回复 【右侧内容,后台自定义】
您需要登录后才可以回帖 登录 | 立即加入

本版积分规则

Archiver|小黑屋| 蓝光电影网 |网站地图

Copyright © 2021 Comsenz Inc. Powered by 蓝光电影网

蓝光电影网

本站内容由用户自主分享和转载自互联网,转载目的在于传递更多信息,并不代表本网赞同其观点和对其真实性负责。

如有侵权、违反国家法律政策行为,请联系我们,我们会第一时间及时清除和处理!

举报反馈邮箱:[email protected]

快速回复 返回顶部 返回列表