找回密码

蓝光电影网

查看: 24|回复: 0

[喜剧] 碰撞试验 Crash.Test.Aglae.2017.FRENCH.1080p.BluRay.x264.DTS-SbR 9.23GB

[复制链接]
蓝光币
515
发表于 2020-11-23 08:32:07 | 显示全部楼层 |阅读模式


◎译  名 碰撞实验
◎片  名 Crash Test Aglaé
◎年  代 2017
◎产  地 法国
◎类  别 笑剧
◎语  言 法语
◎上映日期 2017-08-02(法国)
◎IMDb评分  6.6/10 from 530 users
◎IMDb链接  https://www.imdb.com/title/tt5037626/
◎豆瓣评分 /10 from 0 users
◎豆瓣链接 https://movie.douban.com/subject/26769303/
◎片  长 85分钟
◎主  演 弗雷德里克·贝尔 Frédérique Bel
       朱莉·德帕迪约 Julie Depardieu
       阿迪勒·侯赛因 Adil Hussain
       友兰达·梦露 Yolande Moreau
       汉斯·齐施勒 Hanns Zischler
       英迪亚·海尔 India Hair
       普佳里妮·高什 Pujarini Ghosh
◎标  签 法国 | 女性 | 笑剧 | 公路 | 2017 | 法国电影 | 腾讯视频 | 电影
◎简  介


  Aglaé Lanctot, 25-years-old, is as insecure as can be. As a result of being 'brought up' by an irresponsible mother and by an absent father, she can now find her balance only in a methodical life and a regular, well-defined job. For instance in being the most perfectionist vehicle crash test worker ever. So imagine her dismay when she learns that her factory is going to be relocated - in India. Losing such a structuring job is simply inconceivable. So much so that when Aglaé is offered to hold the same position but thousands of miles away from home, with pay cut and without the least social benefits, she - accepts. A few days later, Aglaé hits the road in an old Citro?n Visa, accompanied by her two friends and co-workers Liette and Marcelle who, for reasons of their own, have decided to follow her example.
  1. Video
  2. ID                                       : 1
  3. Format                                   : AVC
  4. Format/Info                              : Advanced Video Codec
  5. Format profile                           : [email protected]
  6. Format settings                          : CABAC / 4 Ref Frames
  7. Format settings, CABAC                   : Yes
  8. Format settings, Reference frames        : 4 frames
  9. Codec ID                                 : V_MPEG4/ISO/AVC
  10. Duration                                 : 1 h 25 min
  11. Bit rate                                 : 14.0 Mb/s
  12. Width                                    : 1 920 pixels
  13. Height                                   : 804 pixels
  14. Display aspect ratio                     : 2.40:1
  15. Frame rate mode                          : Constant
  16. Frame rate                               : 23.976 (24000/1001/189150) FPS
  17. Color space                              : YUV
  18. Chroma subsampling                       : 4:2:0
  19. Bit depth                                : 8 bits
  20. Scan type                                : Progressive
  21. Bits/(Pixel*Frame)                       : 0.378
  22. Stream size                              : 8.33 GiB (90%)
  23. Writing library                          : x264 core 152 r2851kMod ba24899
  24. Encoding settings                        : cabac=1 / ref=4 / deblock=1:-3:-3 / analyse=0x3:0x133 / me=umh / subme=11 / psy=1 / fade_compensate=0.00 / psy_rd=1.00:0.00 / mixed_ref=1 / me_range=32 / chroma_me=1 / trellis=2 / 8x8dct=1 / cqm=0 / deadzone=21,11 / fast_pskip=1 / chroma_qp_offset=-2 / threads=25 / lookahead_threads=6 / sliced_threads=0 / nr=0 / decimate=1 / interlaced=0 / bluray_compat=0 / constrained_intra=0 / bframes=10 / b_pyramid=2 / b_adapt=2 / b_bias=0 / direct=3 / weightb=1 / open_gop=0 / weightp=2 / keyint=250 / keyint_min=23 / scenecut=40 / intra_refresh=0 / rc=crf / mbtree=0 / crf=16.0000 / qcomp=0.65 / qpmin=0 / qpmax=69 / qpstep=4 / ip_ratio=1.25 / pb_ratio=1.20 / aq=1:0.60
  25. Language                                 : French
  26. Default                                  : Yes
  27. Forced                                   : No
  28. Audio
  29. ID                                       : 2
  30. Format                                   : DTS
  31. Format/Info                              : Digital Theater Systems
  32. Codec ID                                 : A_DTS
  33. Duration                                 : 1 h 25 min
  34. Bit rate mode                            : Constant
  35. Bit rate                                 : 1 509 kb/s
  36. Channel(s)                               : 6 channels
  37. Channel layout                           : C L R Ls Rs LFE
  38. Sampling rate                            : 48.0 kHz
  39. Frame rate                               : 93.750 FPS (512 SPF)
  40. Bit depth                                : 24 bits
  41. Compression mode                         : Lossy
  42. Stream size                              : 920 MiB (10%)
  43. Language                                 : French
  44. Default                                  : Yes
  45. Forced                                   : No
  46. Text #1
  47. ID                                       : 3
  48. Format                                   : ASS
  49. Codec ID                                 : S_TEXT/ASS
  50. Codec ID/Info                            : Advanced Sub Station Alpha
  51. Duration                                 : 1 h 24 min
  52. Bit rate                                 : 85 b/s
  53. Count of elements                        : 769
  54. Compression mode                         : Lossless
  55. Stream size                              : 53.0 KiB (0%)
  56. Language                                 : Russian
  57. Default                                  : No
  58. Forced                                   : No
  59. Text #2
  60. ID                                       : 4
  61. Format                                   : UTF-8
  62. Codec ID                                 : S_TEXT/UTF8
  63. Codec ID/Info                            : UTF-8 Plain Text
  64. Duration                                 : 1 h 24 min
  65. Bit rate                                 : 58 b/s
  66. Count of elements                        : 769
  67. Stream size                              : 36.3 KiB (0%)
  68. Language                                 : Russian
  69. Default                                  : No
  70. Forced                                   : No
  71. Text #3
  72. ID                                       : 5
  73. Format                                   : ASS
  74. Codec ID                                 : S_TEXT/ASS
  75. Codec ID/Info                            : Advanced Sub Station Alpha
  76. Duration                                 : 1 h 24 min
  77. Bit rate                                 : 59 b/s
  78. Count of elements                        : 726
  79. Compression mode                         : Lossless
  80. Stream size                              : 36.9 KiB (0%)
  81. Language                                 : English
  82. Default                                  : No
  83. Forced                                   : No
  84. Text #4
  85. ID                                       : 6
  86. Format                                   : UTF-8
  87. Codec ID                                 : S_TEXT/UTF8
  88. Codec ID/Info                            : UTF-8 Plain Text
  89. Duration                                 : 1 h 24 min
  90. Bit rate                                 : 34 b/s
  91. Count of elements                        : 726
  92. Stream size                              : 21.1 KiB (0%)
  93. Language                                 : English
  94. Default                                  : No
  95. Forced                                   : No
  96. Text #5
  97. ID                                       : 7
  98. Format                                   : ASS
  99. Codec ID                                 : S_TEXT/ASS
  100. Codec ID/Info                            : Advanced Sub Station Alpha
  101. Duration                                 : 1 h 21 min
  102. Bit rate                                 : 133 b/s
  103. Count of elements                        : 1069
  104. Compression mode                         : Lossless
  105. Stream size                              : 79.5 KiB (0%)
  106. Language                                 : French
  107. Default                                  : No
  108. Forced                                   : No
  109. Text #6
  110. ID                                       : 8
  111. Format                                   : UTF-8
  112. Codec ID                                 : S_TEXT/UTF8
  113. Codec ID/Info                            : UTF-8 Plain Text
  114. Duration                                 : 47 min 8 s
  115. Bit rate                                 : 12 b/s
  116. Count of elements                        : 162
  117. Stream size                              : 4.45 KiB (0%)
  118. Title                                    : Forced
  119. Language                                 : French
  120. Default                                  : No
  121. Forced                                   : No
  122. Menu
  123. 00:00:00.000                             : en:Chapter 01
  124. 00:09:56.012                             : en:Chapter 02
  125. 00:16:46.631                             : en:Chapter 03
  126. 00:25:19.435                             : en:Chapter 04
  127. 00:33:46.441                             : en:Chapter 05
  128. 00:44:35.006                             : en:Chapter 06
  129. 00:52:21.263                             : en:Chapter 07
  130. 01:01:41.698                             : en:Chapter 08
  131. 01:10:47.869                             : en:Chapter 09
  132. 01:20:52.723                             : en:Chapter 10
复制代码






                                       
                                       

                                       
                                       
                                       




回复

使用道具 举报

懒得打字嘛,点击右侧快捷回复 【右侧内容,后台自定义】
您需要登录后才可以回帖 登录 | 立即加入

本版积分规则

Archiver|小黑屋| 蓝光电影网 |网站地图

Copyright © 2021 Comsenz Inc. Powered by 蓝光电影网

蓝光电影网

本站内容由用户自主分享和转载自互联网,转载目的在于传递更多信息,并不代表本网赞同其观点和对其真实性负责。

如有侵权、违反国家法律政策行为,请联系我们,我们会第一时间及时清除和处理!

举报反馈邮箱:[email protected]

快速回复 返回顶部 返回列表