找回密码

蓝光电影网

查看: 14|回复: 0

[动作] 攻壳机动队 新剧场版 Ghost.In.The.Shell.The.New.Movie.2015.1080p.BluRay.x264-WaLMaRT 5.52GB

[复制链接]
蓝光币
519
发表于 2019-8-23 08:16:48 | 显示全部楼层 |阅读模式


◎译  名 攻壳灵活队 新戏院版 / Ghost in the Shell: The New Movie
◎片  名 攻殻機動隊 新劇場版
◎年  代 2015
◎产  地 日本
◎类  别 行动 / 科幻 / 动画
◎语  言 日语
◎上映日期 2015-06-20(日本)
◎IMDb评分  6.7/10 from 3069 users
◎IMDb链接  http://www.imdb.com/title/tt4337072
◎豆瓣评分 7.0/10 from 3331 users
◎豆瓣链接 https://movie.douban.com/subject/25980249/
◎片  长 99分钟
◎导  演 黄瀬和哉 Kazuya Kise / 野村和也 Kazuya Nomura
◎编  剧 冲方丁 Tow Ubukata / 士郎正宗 Masamune Shirow
◎主  演 坂本真绫 Maaya Sakamoto
       塾一久
       松田健一郎
       新垣樽助 Tarusuke Shingaki
       咲野俊介
       中國卓郎
       上田燿司
       中井和哉 Kazuya Nakai
       泽城美雪 Miyuki Sawashiro

◎标  签 动画 | 日本 | 科幻 | 攻壳灵活队 | 戏院版 | 2015 | 日本动画 | 押井守
◎简  介  
  2029年3月某日,某国大使馆遭到一群经大范围义体革新的武装份子的入侵,众多本国使节及其同侪家属沦为人质,局势十万急切。草薙素子(坂本真绫 配音)召集巴特(松田健一郎 配音)、陀古萨(新垣樽助 配音)等得力部属,并制定了周密的救援计划。谁知当一切都循序渐进停止之时,意外忽然发生。与此同时,间隔大使馆不远的一座摩天大楼内,日本辅弼遭到密码箱炸弹的暗杀,素子之前的下属陆军501机关的机关长库露兹(浅野麻由美 饰)也在爆炸中丧生。经过周密清查,素子等人发现一种可以篡改记忆的病毒正在收集舒展,而她的身世居然和连续串的事务有着亲近联系。危机当前,诡计悄悄复出水面……
  本片按照士郎正宗的同名原作改编,系《攻壳灵活队》诞生25周年数念作品。
  1. Video
  2. ID                                       : 1
  3. Format                                   : AVC
  4. Format/Info                              : Advanced Video Codec
  5. Format profile                           : [email protected]
  6. Format settings, CABAC                   : Yes
  7. Format settings, ReFrames                : 4 frames
  8. Codec ID                                 : V_MPEG4/ISO/AVC
  9. Duration                                 : 1h 39mn
  10. Bit rate                                 : 6 574 Kbps
  11. Width                                    : 1 920 pixels
  12. Height                                   : 1 080 pixels
  13. Display aspect ratio                     : 16:9
  14. Frame rate mode                          : Constant
  15. Frame rate                               : 23.976 (24000/1001) fps
  16. Color space                              : YUV
  17. Chroma subsampling                       : 4:2:0
  18. Bit depth                                : 8 bits
  19. Scan type                                : Progressive
  20. Bits/(Pixel*Frame)                       : 0.132
  21. Stream size                              : 4.57 GiB (84%)
  22. Writing library                          : x264 core 148 r2665 a01e339
  23. Encoding settings                        : cabac=1 / ref=4 / deblock=1:0:0 / analyse=0x3:0x113 / me=umh / subme=8 / psy=1 / psy_rd=1.00:0.00 / mixed_ref=1 / me_range=16 / chroma_me=1 / trellis=1 / 8x8dct=1 / cqm=0 / deadzone=21,11 / fast_pskip=1 / chroma_qp_offset=-2 / threads=12 / lookahead_threads=2 / sliced_threads=0 / nr=0 / decimate=1 / interlaced=0 / bluray_compat=0 / constrained_intra=0 / bframes=3 / b_pyramid=2 / b_adapt=2 / b_bias=0 / direct=3 / weightb=1 / open_gop=0 / weightp=2 / keyint=250 / keyint_min=23 / scenecut=40 / intra_refresh=0 / rc_lookahead=50 / rc=2pass / mbtree=1 / bitrate=6574 / ratetol=1.0 / qcomp=0.60 / qpmin=0 / qpmax=69 / qpstep=4 / cplxblur=20.0 / qblur=0.5 / ip_ratio=1.40 / aq=1:1.00
  24. Default                                  : Yes
  25. Forced                                   : No

  26. Audio #1
  27. ID                                       : 2
  28. Format                                   : AC-3
  29. Format/Info                              : Audio Coding 3
  30. Mode extension                           : CM (complete main)
  31. Format settings, Endianness              : Big
  32. Codec ID                                 : A_AC3
  33. Duration                                 : 1h 39mn
  34. Bit rate mode                            : Constant
  35. Bit rate                                 : 640 Kbps
  36. Channel(s)                               : 6 channels
  37. Channel positions                        : Front: L C R, Side: L R, LFE
  38. Sampling rate                            : 48.0 KHz
  39. Frame rate                               : 31.250 fps (1536 spf)
  40. Compression mode                         : Lossy
  41. Stream size                              : 455 MiB (8%)
  42. Title                                    : Japanese
  43. Language                                 : Japanese
  44. Default                                  : Yes
  45. Forced                                   : Yes

  46. Audio #2
  47. ID                                       : 3
  48. Format                                   : AC-3
  49. Format/Info                              : Audio Coding 3
  50. Mode extension                           : CM (complete main)
  51. Format settings, Endianness              : Big
  52. Codec ID                                 : A_AC3
  53. Duration                                 : 1h 39mn
  54. Bit rate mode                            : Constant
  55. Bit rate                                 : 640 Kbps
  56. Channel(s)                               : 6 channels
  57. Channel positions                        : Front: L C R, Side: L R, LFE
  58. Sampling rate                            : 48.0 KHz
  59. Frame rate                               : 31.250 fps (1536 spf)
  60. Compression mode                         : Lossy
  61. Stream size                              : 455 MiB (8%)
  62. Title                                    : English
  63. Language                                 : English
  64. Default                                  : No
  65. Forced                                   : No

  66. Text #1
  67. ID                                       : 4
  68. Format                                   : UTF-8
  69. Codec ID                                 : S_TEXT/UTF8
  70. Codec ID/Info                            : UTF-8 Plain Text
  71. Duration                                 : 1h 36mn
  72. Bit rate                                 : 56 bps
  73. Count of elements                        : 952
  74. Stream size                              : 39.9 KiB (0%)
  75. Title                                    : English
  76. Language                                 : English
  77. Default                                  : Yes
  78. Forced                                   : Yes

  79. Text #2
  80. ID                                       : 5
  81. Format                                   : UTF-8
  82. Codec ID                                 : S_TEXT/UTF8
  83. Codec ID/Info                            : UTF-8 Plain Text
  84. Duration                                 : 1h 19mn
  85. Bit rate                                 : 1 bps
  86. Count of elements                        : 27
  87. Stream size                              : 989 Bytes (0%)
  88. Title                                    : English Forced
  89. Language                                 : English
  90. Default                                  : No
  91. Forced                                   : No
复制代码




                                       
                                       

                                       
                                       
                                       




回复

使用道具 举报

懒得打字嘛,点击右侧快捷回复 【右侧内容,后台自定义】
您需要登录后才可以回帖 登录 | 立即加入

本版积分规则

Archiver|小黑屋| 蓝光电影网 |网站地图

Copyright © 2021 Comsenz Inc. Powered by 蓝光电影网

蓝光电影网

本站内容由用户自主分享和转载自互联网,转载目的在于传递更多信息,并不代表本网赞同其观点和对其真实性负责。

如有侵权、违反国家法律政策行为,请联系我们,我们会第一时间及时清除和处理!

举报反馈邮箱:[email protected]

快速回复 返回顶部 返回列表