找回密码

蓝光电影网

查看: 54|回复: 0

[动作] 星际传奇 Pitch.Black.2000.REMASTERED.DC.1080p.BluRay.REMUX.AVC.DTS-HD.MA.5.1-FGT 23.00GB

[复制链接]
蓝光币
515
发表于 2020-8-20 14:48:47 | 显示全部楼层 |阅读模式


◎译  名 星际传奇 / The Chronicles of Riddick: Pitch Black / 黝黑一片 / 黑煞天魔
◎片  名 Pitch Black
◎年  代 2000
◎产  地 美国
◎类  别 行动 / 科幻 / 惊悚
◎语  言 英语 / 阿拉伯语
◎上映日期 2000-02-18
◎IMDb评分  7.1/10 from 220944 users
◎IMDb链接  https://www.imdb.com/title/tt0134847
◎豆瓣评分 7.2/10 from 24245 users
◎豆瓣链接 https://movie.douban.com/subject/1296459/
◎片  长 109 分钟
◎导  演 David Twohy
◎编  剧 Jim Wheat / Ken Wheat / David Twohy
◎主  演 Vin Diesel
       Radha Mitchell
       Cole Hauser
       Keith David
       Lewis Fitz-Gerald

◎标  签 科幻 | 美国 | 行动 | 惊悚 | 文·迪塞尔 | 星际传奇 | 2000 | 美国电影
◎简  介

  
  在浩大的宇宙间,一艘名为猎人号的商用飞船正停止着冗长的旅程。船上搭载着40位乘客,其中包括重刑罪犯理查·雷迪克(Vin Diesel 饰)。当行驶到丹吉尔星系时,突如其来的变乱令飞船蒙受重创,空气飞速泄露,终极迫降到一颗酷热而荒凉的星球上。着陆时的庞大冲击力几近让飞船支离破裂,死伤者众多。幸存者们来到这片陌生的河山,严酷的自然情况考验着每一小我,分歧民族分歧职业的他们此时必须捐弃前嫌,结合起来。他们不但要与天空中三个太阳作抗争,还要时辰提防隐藏在黑黑暗的危险……
  本片荣获2001年澳大利亚摄影师协会年度最好摄影师和金三角架奖。
  1. Video
  2. ID                                       : 1
  3. ID in the original source medium         : 4113 (0x1011)
  4. Format                                   : AVC
  5. Format/Info                              : Advanced Video Codec
  6. Format profile                           : [email protected]
  7. Format settings                          : CABAC / 3 Ref Frames
  8. Format settings, CABAC                   : Yes
  9. Format settings, Reference frames        : 3 frames
  10. Codec ID                                 : V_MPEG4/ISO/AVC
  11. Duration                                 : 1 h 51 min
  12. Bit rate mode                            : Variable
  13. Bit rate                                 : 25.0 Mb/s
  14. Maximum bit rate                         : 35.0 Mb/s
  15. Width                                    : 1 920 pixels
  16. Height                                   : 1 080 pixels
  17. Display aspect ratio                     : 16:9
  18. Frame rate mode                          : Constant
  19. Frame rate                               : 24.000 FPS
  20. Color space                              : YUV
  21. Chroma subsampling                       : 4:2:0
  22. Bit depth                                : 8 bits
  23. Scan type                                : Progressive
  24. Bits/(Pixel*Frame)                       : 0.502
  25. Stream size                              : 19.4 GiB (85%)
  26. Title                                    : Pitch.Black.2000.REMASTERED.DC.1080p.BluRay.REMUX.AVC.DTS-HD.MA.5.1-FGT
  27. Writing library                          : x264 core 157 r2969 d4099dd
  28. Encoding settings                        : cabac=1 / ref=4 / deblock=0:-1:-1 / analyse=0x3:0x133 / me=umh / subme=10 / psy=1 / psy_rd=1.00:0.15 / mixed_ref=1 / me_range=24 / chroma_me=1 / trellis=2 / 8x8dct=1 / cqm=0 / deadzone=21,11 / fast_pskip=1 / chroma_qp_offset=-3 / threads=34 / lookahead_threads=2 / sliced_threads=0 / slices=4 / nr=0 / decimate=1 / interlaced=0 / bluray_compat=1 / constrained_intra=0 / bframes=3 / b_pyramid=1 / b_adapt=2 / b_bias=0 / direct=3 / weightb=1 / open_gop=1 / weightp=1 / keyint=24 / keyint_min=1 / scenecut=40 / intra_refresh=0 / rc_lookahead=24 / rc=2pass / mbtree=1 / bitrate=25000 / ratetol=1.0 / qcomp=0.60 / qpmin=0 / qpmax=69 / qpstep=4 / cplxblur=20.0 / qblur=0.5 / vbv_maxrate=35000 / vbv_bufsize=30000 / nal_hrd=vbr / filler=0 / ip_ratio=1.40 / aq=1:0.40 / zones=2227,2227,b=3.0
  29. Language                                 : English
  30. Default                                  : No
  31. Forced                                   : No
  32. Color range                              : Limited
  33. Color primaries                          : BT.709
  34. Transfer characteristics                 : BT.709
  35. Matrix coefficients                      : BT.709
  36. Original source medium                   : Blu-ray
  37. Audio #1
  38. ID                                       : 2
  39. ID in the original source medium         : 4352 (0x1100)
  40. Format                                   : DTS XLL
  41. Format/Info                              : Digital Theater Systems
  42. Commercial name                          : DTS-HD Master Audio
  43. Codec ID                                 : A_DTS
  44. Duration                                 : 1 h 51 min
  45. Bit rate mode                            : Variable
  46. Bit rate                                 : 4 158 kb/s
  47. Channel(s)                               : 6 channels
  48. Channel layout                           : C L R Ls Rs LFE
  49. Sampling rate                            : 48.0 kHz
  50. Frame rate                               : 93.750 FPS (512 SPF)
  51. Bit depth                                : 24 bits
  52. Compression mode                         : Lossless
  53. Stream size                              : 3.25 GiB (14%)
  54. Title                                    : Pitch.Black.2000.REMASTERED.DC.1080p.BluRay.REMUX.AVC.DTS-HD.MA.5.1-FGT
  55. Language                                 : English
  56. Default                                  : Yes
  57. Forced                                   : No
  58. Original source medium                   : Blu-ray
  59. Audio #2
  60. ID                                       : 3
  61. ID in the original source medium         : 4353 (0x1101)
  62. Format                                   : AC-3
  63. Format/Info                              : Audio Coding 3
  64. Commercial name                          : Dolby Digital
  65. Codec ID                                 : A_AC3
  66. Duration                                 : 1 h 51 min
  67. Bit rate mode                            : Constant
  68. Bit rate                                 : 192 kb/s
  69. Channel(s)                               : 2 channels
  70. Channel layout                           : L R
  71. Sampling rate                            : 48.0 kHz
  72. Frame rate                               : 31.250 FPS (1536 SPF)
  73. Compression mode                         : Lossy
  74. Stream size                              : 153 MiB (1%)
  75. Title                                    : Pitch.Black.2000.REMASTERED.DC.1080p.BluRay.REMUX.AVC.DTS-HD.MA.5.1-FGT
  76. Language                                 : English
  77. Service kind                             : Complete Main
  78. Default                                  : No
  79. Forced                                   : No
  80. Original source medium                   : Blu-ray
  81. Audio #3
  82. ID                                       : 4
  83. ID in the original source medium         : 4354 (0x1102)
  84. Format                                   : AC-3
  85. Format/Info                              : Audio Coding 3
  86. Commercial name                          : Dolby Digital
  87. Codec ID                                 : A_AC3
  88. Duration                                 : 1 h 51 min
  89. Bit rate mode                            : Constant
  90. Bit rate                                 : 192 kb/s
  91. Channel(s)                               : 2 channels
  92. Channel layout                           : L R
  93. Sampling rate                            : 48.0 kHz
  94. Frame rate                               : 31.250 FPS (1536 SPF)
  95. Compression mode                         : Lossy
  96. Stream size                              : 153 MiB (1%)
  97. Title                                    : Pitch.Black.2000.REMASTERED.DC.1080p.BluRay.REMUX.AVC.DTS-HD.MA.5.1-FGT
  98. Language                                 : English
  99. Service kind                             : Complete Main
  100. Default                                  : No
  101. Forced                                   : No
  102. Original source medium                   : Blu-ray
  103. Text #1
  104. ID                                       : 5
  105. Format                                   : UTF-8
  106. Codec ID                                 : S_TEXT/UTF8
  107. Codec ID/Info                            : UTF-8 Plain Text
  108. Duration                                 : 1 h 44 min
  109. Bit rate                                 : 37 b/s
  110. Count of elements                        : 949
  111. Stream size                              : 29.0 KiB (0%)
  112. Title                                    : English-SRT
  113. Language                                 : English
  114. Default                                  : Yes
  115. Forced                                   : No
  116. Text #2
  117. ID                                       : 6
  118. Format                                   : UTF-8
  119. Codec ID                                 : S_TEXT/UTF8
  120. Codec ID/Info                            : UTF-8 Plain Text
  121. Duration                                 : 1 h 44 min
  122. Bit rate                                 : 41 b/s
  123. Count of elements                        : 1123
  124. Stream size                              : 31.8 KiB (0%)
  125. Title                                    : English-SDH-SRT
  126. Language                                 : English
  127. Default                                  : No
  128. Forced                                   : No
  129. Text #3
  130. ID                                       : 7
  131. ID in the original source medium         : 4608 (0x1200)
  132. Format                                   : PGS
  133. Muxing mode                              : zlib
  134. Codec ID                                 : S_HDMV/PGS
  135. Codec ID/Info                            : Picture based subtitle format used on BDs/HD-DVDs
  136. Duration                                 : 1 h 44 min
  137. Bit rate                                 : 27.8 kb/s
  138. Count of elements                        : 2246
  139. Stream size                              : 20.8 MiB (0%)
  140. Title                                    : English-PGS
  141. Language                                 : English
  142. Default                                  : No
  143. Forced                                   : No
  144. Original source medium                   : Blu-ray
  145. Menu
  146. 00:00:00.000                             : en:Chapter 01
  147. 00:11:13.083                             : en:Chapter 02
  148. 00:18:27.166                             : en:Chapter 03
  149. 00:27:09.708                             : en:Chapter 04
  150. 00:36:45.458                             : en:Chapter 05
  151. 00:46:35.916                             : en:Chapter 06
  152. 00:56:13.625                             : en:Chapter 07
  153. 01:02:39.875                             : en:Chapter 08
  154. 01:12:18.125                             : en:Chapter 09
  155. 01:19:16.125                             : en:Chapter 10
  156. 01:33:36.541                             : en:Chapter 11
  157. 01:39:17.708                             : en:Chapter 12
复制代码




                                       
                                       

                                       
                                       
                                       




回复

使用道具 举报

懒得打字嘛,点击右侧快捷回复 【右侧内容,后台自定义】
您需要登录后才可以回帖 登录 | 立即加入

本版积分规则

Archiver|小黑屋| 蓝光电影网 |网站地图

Copyright © 2021 Comsenz Inc. Powered by 蓝光电影网

蓝光电影网

本站内容由用户自主分享和转载自互联网,转载目的在于传递更多信息,并不代表本网赞同其观点和对其真实性负责。

如有侵权、违反国家法律政策行为,请联系我们,我们会第一时间及时清除和处理!

举报反馈邮箱:[email protected]

快速回复 返回顶部 返回列表