找回密码

蓝光电影网

查看: 7|回复: 0

[动作] 杀手十三:阴谋 XIII.The.Conspiracy.The.Movie.2008.1080p.BluRay.x264-RESiSTANCE 10.94GB

[复制链接]
蓝光币
515
发表于 2019-8-23 07:46:41 | 显示全部楼层 |阅读模式


◎译  名 杀手十三:诡计 / Thirteen: Conspiracy / 杀手13 / 终极刺客
◎片  名 XIII: The Conspiracy
◎年  代 2008
◎产  地 法国 / 加拿大
◎类  别 行动 / 悬疑 / 惊悚 / 犯罪
◎语  言 英语
◎上映日期 2008-10-06
◎IMDb评分  6.7/10 from 6438 users
◎IMDb链接  http://www.imdb.com/title/tt1117667
◎豆瓣评分 6.9/10 from 6458 users
◎豆瓣链接 https://movie.douban.com/subject/3026635/
◎集  数 2
◎片  长 120 分钟 / 90 分钟(DVD version) / Netherlands: 173 分钟(DVD) / USA: 136 分钟
◎导  演 Duane Clark
◎编  剧 Philippe Lyon / William Vance / Jean Van Hamme / David Wolkove
◎主  演 Stephen Dorff

◎标  签 行动 | 悬疑 | 美国 | 奸细 | 政治 | 犯罪 | 杀手13 | 美国电影
◎简  介  
  本片改编自比利时的连环漫画册,连环漫画册的灵感来历于同名游戏XIII。
  在"老兵纪念日"上颁发讲话的美国历史上首位女总统遇刺身亡后的三个月后,一个满身是伤、衣冠楚楚的汉子(斯蒂芬·多尔夫 Stephen Dorff 饰)出现在某森林里。他没著名字,没有记忆,没有曩昔,脸孔全非,似乎从不曾来到过这个天下。唯一的线索,就是身上的纹身“XIII”。XIII获得奥秘构造的帮助从牢狱里死里逃生,碰到似曾了解的情人,被奥秘构造逼迫做买卖的同时,被另一伙人追杀。而他们的目标,就是藏在XIII腕内外的记忆芯片,一切都扑朔迷离。XIII发现自己被卷入一个惊天诡计,自己也并非实在的XIII,实在的XIII早在刺杀总统后就被灭口,自己是由时任国家平安局副局长的将军指派的卧底,意在勾引幕后主某的出现......
  1. Video
  2. ID                                       : 1
  3. Format                                   : AVC
  4. Format/Info                              : Advanced Video Codec
  5. Format profile                           : [email protected]
  6. Format settings, CABAC                   : Yes
  7. Format settings, ReFrames                : 4 frames
  8. Codec ID                                 : V_MPEG4/ISO/AVC
  9. Duration                                 : 3h 0mn
  10. Bit rate                                 : 8 051 Kbps
  11. Width                                    : 1 920 pixels
  12. Height                                   : 1 080 pixels
  13. Display aspect ratio                     : 16:9
  14. Frame rate mode                          : Constant
  15. Frame rate                               : 23.976 fps
  16. Color space                              : YUV
  17. Chroma subsampling                       : 4:2:0
  18. Bit depth                                : 8 bits
  19. Scan type                                : Progressive
  20. Bits/(Pixel*Frame)                       : 0.162
  21. Stream size                              : 9.91 GiB (91%)
  22. Writing library                          : x264 core 77 r1292 e381f6d
  23. Encoding settings                        : cabac=1 / ref=4 / deblock=1:0:0 / analyse=0x3:0x133 / me=umh / subme=7 / psy=1 / psy_rd=1.0:0.0 / mixed_ref=1 / me_range=16 / chroma_me=1 / trellis=1 / 8x8dct=1 / cqm=2 / deadzone=21,11 / chroma_qp_offset=-2 / threads=3 / nr=0 / decimate=1 / mbaff=0 / constrained_intra=0 / bframes=3 / b_pyramid=0 / b_adapt=1 / b_bias=0 / direct=1 / wpredb=1 / keyint=250 / keyint_min=25 / scenecut=40 / rc_lookahead=40 / rc=2pass / mbtree=1 / bitrate=8051 / ratetol=1.0 / qcomp=0.60 / qpmin=10 / qpmax=51 / qpstep=4 / cplxblur=20.0 / qblur=0.5 / ip_ratio=1.40 / aq=1:1.00
  24. Language                                 : English
  25. Default                                  : Yes
  26. Forced                                   : No
  27. Audio
  28. ID                                       : 2
  29. Format                                   : AC-3
  30. Format/Info                              : Audio Coding 3
  31. Mode extension                           : CM (complete main)
  32. Format settings, Endianness              : Big
  33. Codec ID                                 : A_AC3
  34. Duration                                 : 3h 0mn
  35. Bit rate mode                            : Constant
  36. Bit rate                                 : 640 Kbps
  37. Channel(s)                               : 6 channels
  38. Channel positions                        : Front: L C R, Side: L R, LFE
  39. Sampling rate                            : 48.0 KHz
  40. Frame rate                               : 31.250 fps (1536 spf)
  41. Compression mode                         : Lossy
  42. Stream size                              : 824 MiB (7%)
  43. Language                                 : English
  44. Default                                  : Yes
  45. Forced                                   : No
复制代码









                                       
                                       

                                       
                                       
                                       




回复

使用道具 举报

懒得打字嘛,点击右侧快捷回复 【右侧内容,后台自定义】
您需要登录后才可以回帖 登录 | 立即加入

本版积分规则

Archiver|小黑屋| 蓝光电影网 |网站地图

Copyright © 2021 Comsenz Inc. Powered by 蓝光电影网

蓝光电影网

本站内容由用户自主分享和转载自互联网,转载目的在于传递更多信息,并不代表本网赞同其观点和对其真实性负责。

如有侵权、违反国家法律政策行为,请联系我们,我们会第一时间及时清除和处理!

举报反馈邮箱:[email protected]

快速回复 返回顶部 返回列表