找回密码

蓝光电影网

查看: 10|回复: 0

[动作] 超级赛车场 IMAX.Super.Speedway.1997.1080p.BluRay.x264-PUZZLE 4.37GB

[复制链接]
蓝光币
519
发表于 2019-8-23 07:38:41 | 显示全部楼层 |阅读模式


◎译  名 超级赛车场
◎片  名 Super Speedway
◎年  代 1997
◎产  地 加拿大 / 美国
◎类  别 行动 / 记载片 / 活动
◎语  言 英语
◎上映日期 1997
◎IMDb评分  7.1/10 from 437 users
◎IMDb链接  http://www.imdb.com/title/tt0120245
◎豆瓣评分 7.5/10 from 71 users
◎豆瓣链接 https://movie.douban.com/subject/1298957/
◎片  长 50 分钟
◎导  演 Stephen Low
◎编  剧 Alexander Low
◎主  演 Paul Newman

◎标  签 记载片 | 赛车 | IMAX | 美国 | 加拿大 | 1997 | 我看过的英语电影 | 体育
◎简  介  
  《超级赛车场》是一部使人战栗的IMAX影片,它捕捉到了这项竞速活动的出色之处,以及幕后细节。Low随着两名都叫Andretti的赛车手Maeio和Michael停止拍摄。经过庞大的IMAX摄象机,导演可以捕捉到一些分歧凡响的镜头。再配合以影片那精采的音效设想,观众将会恍如置身比赛当中。《超级赛车场》不但因其经过巨型摄象机对时速百迈的赛车那杰出的拍摄结果而成为技术上的成就,也因对Andretti父子赛车生活的详实论述而出色。
  影片的音效设想实在是匠心独具,在家庭影院的音效体验中可以说是无出其右者。不管是驾驶场景还是竞速场景,当环抱声出结果时城市让人感应刺激异常。经过几近全数的IMAX影片殊效,环抱细节结果绝对惊人。即使在早期的车辆整备场景中,也有大量的细节音效从后置传来,让观众听到布景里传来的工作声响。可以说,《超级赛车场》每一幕中的音效的深度和维度都让人屏息以待。
  1. Video
  2. ID                                       : 2
  3. Format                                   : AVC
  4. Format/Info                              : Advanced Video Codec
  5. Format profile                           : [email protected]
  6. Format settings, CABAC                   : Yes
  7. Format settings, ReFrames                : 4 frames
  8. Codec ID                                 : V_MPEG4/ISO/AVC
  9. Duration                                 : 49mn 41s
  10. Bit rate                                 : 11.1 Mbps
  11. Width                                    : 1 920 pixels
  12. Height                                   : 1 080 pixels
  13. Display aspect ratio                     : 16:9
  14. Frame rate mode                          : Constant
  15. Frame rate                               : 23.976 fps
  16. Color space                              : YUV
  17. Chroma subsampling                       : 4:2:0
  18. Bit depth                                : 8 bits
  19. Scan type                                : Progressive
  20. Bits/(Pixel*Frame)                       : 0.223
  21. Stream size                              : 3.76 GiB (86%)
  22. Writing library                          : x264 core 98 r1649 c54c47d
  23. Encoding settings                        : cabac=1 / ref=4 / deblock=1:0:0 / analyse=0x3:0x133 / me=umh / subme=7 / psy=1 / psy_rd=1.00:0.00 / mixed_ref=1 / me_range=16 / chroma_me=1 / trellis=1 / 8x8dct=1 / cqm=0 / deadzone=21,11 / fast_pskip=0 / chroma_qp_offset=-2 / threads=6 / sliced_threads=0 / nr=0 / decimate=0 / interlaced=0 / constrained_intra=0 / bframes=3 / b_pyramid=2 / b_adapt=1 / b_bias=0 / direct=1 / weightb=1 / weightp=2 / keyint=250 / keyint_min=25 / scenecut=40 / intra_refresh=0 / rc_lookahead=40 / rc=2pass / mbtree=1 / bitrate=11080 / ratetol=1.0 / qcomp=0.60 / qpmin=10 / qpmax=51 / qpstep=4 / cplxblur=20.0 / qblur=0.5 / ip_ratio=1.40 / aq=1:1.00
  24. Language                                 : English
  25. Default                                  : No
  26. Forced                                   : No
  27. Audio
  28. ID                                       : 1
  29. Format                                   : DTS
  30. Format/Info                              : Digital Theater Systems
  31. Mode                                     : 16
  32. Format settings, Endianness              : Big
  33. Codec ID                                 : A_DTS
  34. Duration                                 : 49mn 41s
  35. Bit rate mode                            : Constant
  36. Bit rate                                 : 1 509 Kbps
  37. Channel(s)                               : 6 channels
  38. Channel positions                        : Front: L C R, Side: L R, LFE
  39. Sampling rate                            : 48.0 KHz
  40. Frame rate                               : 93.750 fps (512 spf)
  41. Bit depth                                : 24 bits
  42. Compression mode                         : Lossy
  43. Stream size                              : 536 MiB (12%)
  44. Language                                 : English
  45. Default                                  : Yes
  46. Forced                                   : No
复制代码









                                       
                                       

                                       
                                       
                                       




回复

使用道具 举报

懒得打字嘛,点击右侧快捷回复 【右侧内容,后台自定义】
您需要登录后才可以回帖 登录 | 立即加入

本版积分规则

Archiver|小黑屋| 蓝光电影网 |网站地图

Copyright © 2021 Comsenz Inc. Powered by 蓝光电影网

蓝光电影网

本站内容由用户自主分享和转载自互联网,转载目的在于传递更多信息,并不代表本网赞同其观点和对其真实性负责。

如有侵权、违反国家法律政策行为,请联系我们,我们会第一时间及时清除和处理!

举报反馈邮箱:[email protected]

快速回复 返回顶部 返回列表