找回密码

蓝光电影网

查看: 15|回复: 0

[剧情] 最后的疯狂 Last.Rampage.The.Escape.of.Gary.Tison.2017.1080p.BluRay.REMUX.AVC.DTS-HD.MA.5.1-FGT 15.40GB

[复制链接]
蓝光币
515
发表于 2019-6-14 11:59:08 | 显示全部楼层 |阅读模式


◎译  名 最初的疯狂
◎片  名 Last Rampage: The Escape of Gary Tison
◎年  代 2017
◎产  地 美国
◎类  别 剧情
◎语  言 英语
◎上映日期 2017-09-22(美国)
◎IMDb评分  5.7/10 from 1154 users
◎IMDb链接  http://www.imdb.com/title/tt5833186
◎豆瓣评分 5.5/10 from 315 users
◎豆瓣链接 https://movie.douban.com/subject/27007252/
◎导  演 德怀特·H·里特 Dwight H. Little
◎编  剧 James W. Clarke
◎主  演 罗伯特·帕特里克 Robert Patrick
      海瑟·格拉汉姆 Heather Graham
      布鲁斯·戴维森 Bruce Davison
      Alex MacNicoll
      Molly C. Quinn
      Skyy Moore
      Casey Thomas Brown
      克里斯·勃朗宁 Chris Browning
      杰森·詹姆斯·里希特 Jason James Richter
      威廉姆·肖克利 William Shockley
      约翰·赫德 John Heard
      塔玛拉·克拉特布克 Tamara Clatterbuck
      Vincent G. Barker
      Cassandra Bautista
      Deborah Carson

◎标  签 美国 | 犯罪 | 逃狱 | 实在事务 | 剧情 | 西部 | 真人真事改编 | 2017
◎简  介  
  1978年炎天,由污名昭著的实在逃狱事务改编。罪犯加里·蒂松和兰迪·格里纳沃特,与三个儿子接应,从亚利桑那州立牢狱逃狱,流亡新墨西哥州,一路上杀人灭口,终极落入法网。
  1. Video
  2. ID                                       : 1
  3. Format                                   : AVC
  4. Format/Info                              : Advanced Video Codec
  5. Format profile                           : [email protected]
  6. Format settings                          : CABAC / 2 Ref Frames
  7. Format settings, CABAC                   : Yes
  8. Format settings, ReFrames                : 2 frames
  9. Codec ID                                 : V_MPEG4/ISO/AVC
  10. Duration                                 : 1 h 32 min
  11. Bit rate mode                            : Variable
  12. Bit rate                                 : 22.3 Mb/s
  13. Maximum bit rate                         : 30.2 Mb/s
  14. Width                                    : 1 920 pixels
  15. Height                                   : 1 080 pixels
  16. Display aspect ratio                     : 16:9
  17. Frame rate mode                          : Constant
  18. Frame rate                               : 23.976 (24000/1001) FPS
  19. Color space                              : YUV
  20. Chroma subsampling                       : 4:2:0
  21. Bit depth                                : 8 bits
  22. Scan type                                : Progressive
  23. Bits/(Pixel*Frame)                       : 0.448
  24. Stream size                              : 14.4 GiB (94%)
  25. Title                                    : Last.Rampage.The.Escape.of.Gary.Tison.2017.1080p.BluRay.REMUX.AVC.DTS-HD.MA.5.1-FGT
  26. Language                                 : English
  27. Default                                  : No
  28. Forced                                   : No
  29. Audio
  30. ID                                       : 2
  31. Format                                   : DTS XLL
  32. Format/Info                              : Digital Theater Systems
  33. Commercial name                          : DTS-HD Master Audio
  34. Codec ID                                 : A_DTS
  35. Duration                                 : 1 h 32 min
  36. Bit rate mode                            : Variable
  37. Bit rate                                 : 1 528 kb/s
  38. Channel(s)                               : 6 channels
  39. Channel layout                           : C L R Ls Rs LFE
  40. Sampling rate                            : 48.0 kHz
  41. Frame rate                               : 93.750 FPS (512 SPF)
  42. Bit depth                                : 16 bits
  43. Compression mode                         : Lossless
  44. Stream size                              : 1 012 MiB (6%)
  45. Title                                    : Last.Rampage.The.Escape.of.Gary.Tison.2017.1080p.BluRay.REMUX.AVC.DTS-HD.MA.5.1-FGT
  46. Language                                 : English
  47. Default                                  : Yes
  48. Forced                                   : No
  49. Menu
  50. 00:00:00.000                             : en:Chapter 01
  51. 00:07:42.003                             : en:Chapter 02
  52. 00:18:03.040                             : en:Chapter 03
  53. 00:28:04.057                             : en:Chapter 04
  54. 00:38:18.504                             : en:Chapter 05
  55. 00:47:09.493                             : en:Chapter 06
  56. 00:54:22.968                             : en:Chapter 07
  57. 01:00:41.179                             : en:Chapter 08
  58. 01:06:35.950                             : en:Chapter 09
  59. 01:10:53.082                             : en:Chapter 10
  60. 01:21:17.706                             : en:Chapter 11
  61. 01:30:27.964                             : en:Chapter 12
复制代码






                                       
                                       

                                       
                                       
                                       




最初的疯狂 Last.Rampage.The.Escape.of.Gary.Tison.2017.1080p.BluRay.REMUX.AVC.DTS-HD.MA.5.1-FGT 15.40GB

Last.Rampage.The.Escape.of.Gary.Tison.2017.1080p.BluRay.REMUX.AVC.DTS-HD.MA.5.1-.torrent

77.62 KB, 下载次数: 0, 下载积分: 蓝光币 -2

回复

使用道具 举报

懒得打字嘛,点击右侧快捷回复 【右侧内容,后台自定义】
您需要登录后才可以回帖 登录 | 立即加入

本版积分规则

Archiver|小黑屋| 蓝光电影网 |网站地图

Copyright © 2021 Comsenz Inc. Powered by 蓝光电影网

蓝光电影网

本站内容由用户自主分享和转载自互联网,转载目的在于传递更多信息,并不代表本网赞同其观点和对其真实性负责。

如有侵权、违反国家法律政策行为,请联系我们,我们会第一时间及时清除和处理!

举报反馈邮箱:[email protected]

快速回复 返回顶部 返回列表