找回密码

蓝光电影网

查看: 23|回复: 0

[动作] 叛逆者 Mad.Foxes.1981.DUBBED.1080p.BluRay.x264.DTS-BARC0DE 6.43GB

[复制链接]
蓝光币
515
发表于 2019-8-22 03:54:47 | 显示全部楼层 |阅读模式


◎译  名 叛逆者 / Desperado's op wielen Netherlands (video box title) / Mad Foxes (undefined) / Stingray 2 Netherlands (video box title) / West Germany (video box title)
◎片  名 Los violadores
◎年  代 1982
◎产  地 西班牙 / 瑞士
◎类  别 行动 / 可骇
◎语  言 西班牙语
◎上映日期 1982-04-19
◎IMDb评分  5.3/10 from 586 users
◎IMDb链接  http://www.imdb.com/title/tt0083291
◎豆瓣评分 0/10 from 0 users
◎豆瓣链接 https://movie.douban.com/subject/4074712/
◎片  长 77 分钟
◎导  演 Paul Grau
◎编  剧 Melvin Qui?ones / John R. Woodhand
◎主  演 José Gras ...  Hal (as Robert O'Neil)
       Laura Prennica
       Andrea Albani ...  Babsy (as Sally Sullivan)
       .......

◎标  签 情色 | 露点 | 裸体 | 暴力 | 西班牙 | 西班牙电影 | 伦理 | Cult
◎简  介  
  The story about a man who has a run-in with a vicious biker gang and chooses to fight back. Only, the fight escalates to epic proportions as he calls in friends, and neither side will allow the battle to end while the other side is still standing.
  1. Video
  2. ID                                       : 1
  3. Format                                   : AVC
  4. Format/Info                              : Advanced Video Codec
  5. Format profile                           : [email protected]
  6. Format settings                          : CABAC / 4 Ref Frames
  7. Format settings, CABAC                   : Yes
  8. Format settings, Reference frames        : 4 frames
  9. Codec ID                                 : V_MPEG4/ISO/AVC
  10. Duration                                 : 1 h 20 min
  11. Bit rate                                 : 10 000 kb/s
  12. Width                                    : 1 920 pixels
  13. Height                                   : 1 024 pixels
  14. Display aspect ratio                     : 1.85:1
  15. Frame rate mode                          : Constant
  16. Frame rate                               : 24.000 FPS
  17. Color space                              : YUV
  18. Chroma subsampling                       : 4:2:0
  19. Bit depth                                : 8 bits
  20. Scan type                                : Progressive
  21. Bits/(Pixel*Frame)                       : 0.212
  22. Stream size                              : 5.59 GiB (87%)
  23. Writing library                          : x264 core 142 r2479 dd79a61
  24. Encoding settings                        : cabac=1 / ref=3 / deblock=1:0:0 / analyse=0x3:0x113 / me=hex / subme=7 / psy=1 / psy_rd=1.00:0.00 / mixed_ref=1 / me_range=16 / chroma_me=1 / trellis=1 / 8x8dct=1 / cqm=0 / deadzone=21,11 / fast_pskip=1 / chroma_qp_offset=-2 / threads=12 / lookahead_threads=2 / sliced_threads=0 / nr=0 / decimate=1 / interlaced=0 / bluray_compat=0 / constrained_intra=0 / bframes=3 / b_pyramid=2 / b_adapt=1 / b_bias=0 / direct=1 / weightb=1 / open_gop=0 / weightp=2 / keyint=240 / keyint_min=24 / scenecut=40 / intra_refresh=0 / rc_lookahead=40 / rc=abr / mbtree=1 / bitrate=10000 / ratetol=1.0 / qcomp=0.60 / qpmin=0 / qpmax=69 / qpstep=4 / vbv_maxrate=62500 / vbv_bufsize=78125 / nal_hrd=none / filler=0 / ip_ratio=1.40 / aq=1:1.00
  25. Default                                  : Yes
  26. Forced                                   : No
  27. Color range                              : Limited
  28. Color primaries                          : BT.709
  29. Transfer characteristics                 : BT.709
  30. Matrix coefficients                      : BT.709
  31. Audio
  32. ID                                       : 2
  33. Format                                   : DTS
  34. Format/Info                              : Digital Theater Systems
  35. Codec ID                                 : A_DTS
  36. Duration                                 : 1 h 20 min
  37. Bit rate mode                            : Constant
  38. Bit rate                                 : 1 509 kb/s
  39. Channel(s)                               : 6 channels
  40. Channel layout                           : C L R Ls Rs LFE
  41. Sampling rate                            : 48.0 kHz
  42. Frame rate                               : 93.750 FPS (512 SPF)
  43. Bit depth                                : 24 bits
  44. Compression mode                         : Lossy
  45. Stream size                              : 863 MiB (13%)
  46. Title                                    : Surround
  47. Language                                 : English
  48. Default                                  : Yes
  49. Forced                                   : No
  50. Menu
  51. 00:00:00.000                             : :00:00:00.000
  52. 00:02:18.167                             : :00:02:18.042
  53. 00:11:00.167                             : :00:11:00.042
  54. 00:17:45.708                             : :00:17:45.625
  55. 00:29:45.458                             : :00:29:45.375
  56. 00:35:07.833                             : :00:35:07.667
  57. 00:41:28.083                             : :00:41:28.000
  58. 00:59:56.208                             : :00:59:56.125
  59. 01:16:58.917                             : :01:16:58.792
复制代码






                                       
                                       

                                       
                                       
                                       




回复

使用道具 举报

懒得打字嘛,点击右侧快捷回复 【右侧内容,后台自定义】
您需要登录后才可以回帖 登录 | 立即加入

本版积分规则

Archiver|小黑屋| 蓝光电影网 |网站地图

Copyright © 2021 Comsenz Inc. Powered by 蓝光电影网

蓝光电影网

本站内容由用户自主分享和转载自互联网,转载目的在于传递更多信息,并不代表本网赞同其观点和对其真实性负责。

如有侵权、违反国家法律政策行为,请联系我们,我们会第一时间及时清除和处理!

举报反馈邮箱:[email protected]

快速回复 返回顶部 返回列表