找回密码

蓝光电影网

查看: 44|回复: 0

[动作] 飞侠哥顿 Flash.Gordon.1980.REMASTERED.1080p.BluRay.REMUX.AVC.DTS-HD.MA.5.1-FGT 30.30GB

[复制链接]
蓝光币
515
发表于 2020-8-6 09:09:40 | 显示全部楼层 |阅读模式


◎译  名 飞侠哥顿
◎片  名 Flash Gordon
◎年  代 1980
◎产  地 英国
◎类  别 行动 / 科幻 / 冒险
◎语  言 英语
◎上映日期 1980-12-05(美国)
◎IMDb评分  6.5/10 from 49282 users
◎IMDb链接  https://www.imdb.com/title/tt0080745
◎豆瓣评分 6.5/10 from 422 users
◎豆瓣链接 https://movie.douban.com/subject/1300778/
◎片  长 111分钟
◎导  演 迈克·霍奇斯 Mike Hodges
◎编  剧 洛伦佐·森普尔 Lorenzo Semple Jr. / Michael Allin / 亚历克斯·雷蒙德 Alex Raymond
◎主  演 萨姆·琼斯 Sam J. Jones
       梅乐蒂·安德森 Melody Anderson
       马克斯·冯·叙多夫 Max von Sydow
       托波尔 Topol
       奥内拉·穆蒂 Ornella Muti
       提摩西·道尔顿 Timothy Dalton
       布耐恩·布莱塞得 Brian Blessed
       彼得·温贾德 Peter Wyngarde
       玛丽安杰拉·梅拉托 Mariangela Melato
       约翰·奥斯本 John Osborne
       理查德·奥布里恩 Richard O'Brien
       John Hallam
       菲利普·斯通 Philip Stone
       Suzanne Danielle
       威廉·胡特金斯 William Hootkins
       Stanley Lebor
       罗彼·考特拉尼 Robbie Coltrane
       Peter Duncan
       Oliver MacGreevy
       约翰·霍林斯 John Hollis
       Leon Greene
       Tony Scannell
       大卫·尼尔 David Neal
       博格丹·科米诺夫斯基 Bogdan Kominowski
       乔治·哈里斯 George Harris
       迪普·罗伊 Deep Roy
       伊莫金·克莱尔 Imogen Claire
       Andy Bradford
       泰瑞·佛瑞斯塔 Terry Forrestal
       约翰·利斯 John Lees
       维娃 Viva
       鲁斯迪·戈夫 Rusty Goffe
       Richard Jones
       肯尼·贝克 Kenny Baker

◎标  签 科幻 | 美国 | 1980 | cult | 冒险 | 英国 | 美国电影 | 1980s
◎简  介

  
  蒙戈星球的邪恶帝王明预备摧毁地球,查可夫预知外星人的进犯,因而逼迫高登及黛儿登上他的火箭,前往拯救地球。当查可夫等人甫到蒙戈星球,即被明王俘虏……
  1. Video
  2. ID                                       : 1
  3. ID in the original source medium         : 4113 (0x1011)
  4. Format                                   : AVC
  5. Format/Info                              : Advanced Video Codec
  6. Format profile                           : [email protected]
  7. Format settings                          : CABAC / 3 Ref Frames
  8. Format settings, CABAC                   : Yes
  9. Format settings, Reference frames        : 3 frames
  10. Codec ID                                 : V_MPEG4/ISO/AVC
  11. Duration                                 : 1 h 51 min
  12. Bit rate mode                            : Variable
  13. Bit rate                                 : 30.3 Mb/s
  14. Maximum bit rate                         : 33.0 Mb/s
  15. Width                                    : 1 920 pixels
  16. Height                                   : 1 080 pixels
  17. Display aspect ratio                     : 16:9
  18. Frame rate mode                          : Constant
  19. Frame rate                               : 24.000 FPS
  20. Color space                              : YUV
  21. Chroma subsampling                       : 4:2:0
  22. Bit depth                                : 8 bits
  23. Scan type                                : Progressive
  24. Bits/(Pixel*Frame)                       : 0.610
  25. Stream size                              : 23.6 GiB (78%)
  26. Title                                    : Flash.Gordon.1980.REMASTERED.1080p.BluRay.REMUX.AVC.DTS-HD.MA.5.1-FGT
  27. Language                                 : English
  28. Default                                  : No
  29. Forced                                   : No
  30. Color range                              : Limited
  31. Color primaries                          : BT.709
  32. Transfer characteristics                 : BT.709
  33. Matrix coefficients                      : BT.709
  34. Original source medium                   : Blu-ray
  35. Audio #1
  36. ID                                       : 2
  37. ID in the original source medium         : 4353 (0x1101)
  38. Format                                   : DTS XLL
  39. Format/Info                              : Digital Theater Systems
  40. Commercial name                          : DTS-HD Master Audio
  41. Codec ID                                 : A_DTS
  42. Duration                                 : 1 h 51 min
  43. Bit rate mode                            : Variable
  44. Bit rate                                 : 3 506 kb/s
  45. Channel(s)                               : 6 channels
  46. Channel layout                           : C L R Ls Rs LFE
  47. Sampling rate                            : 48.0 kHz
  48. Frame rate                               : 93.750 FPS (512 SPF)
  49. Bit depth                                : 24 bits
  50. Compression mode                         : Lossless
  51. Stream size                              : 2.73 GiB (9%)
  52. Title                                    : Flash.Gordon.1980.REMASTERED.1080p.BluRay.REMUX.AVC.DTS-HD.MA.5.1-FGT
  53. Language                                 : English
  54. Default                                  : Yes
  55. Forced                                   : No
  56. Original source medium                   : Blu-ray
  57. Audio #2
  58. ID                                       : 3
  59. ID in the original source medium         : 4352 (0x1100)
  60. Format                                   : DTS XLL
  61. Format/Info                              : Digital Theater Systems
  62. Commercial name                          : DTS-HD Master Audio
  63. Codec ID                                 : A_DTS
  64. Duration                                 : 1 h 51 min
  65. Bit rate mode                            : Variable
  66. Bit rate                                 : 1 595 kb/s
  67. Channel(s)                               : 2 channels
  68. Channel layout                           : L R
  69. Sampling rate                            : 48.0 kHz
  70. Frame rate                               : 93.750 FPS (512 SPF)
  71. Bit depth                                : 24 bits
  72. Compression mode                         : Lossless
  73. Stream size                              : 1.24 GiB (4%)
  74. Title                                    : Flash.Gordon.1980.REMASTERED.1080p.BluRay.REMUX.AVC.DTS-HD.MA.5.1-FGT
  75. Language                                 : English
  76. Default                                  : No
  77. Forced                                   : No
  78. Original source medium                   : Blu-ray
  79. Audio #3
  80. ID                                       : 4
  81. ID in the original source medium         : 4354 (0x1102)
  82. Format                                   : DTS XLL
  83. Format/Info                              : Digital Theater Systems
  84. Commercial name                          : DTS-HD Master Audio
  85. Codec ID                                 : A_DTS
  86. Duration                                 : 1 h 51 min
  87. Bit rate mode                            : Variable
  88. Bit rate                                 : 1 472 kb/s
  89. Channel(s)                               : 2 channels
  90. Channel layout                           : L R
  91. Sampling rate                            : 48.0 kHz
  92. Frame rate                               : 93.750 FPS (512 SPF)
  93. Bit depth                                : 24 bits
  94. Compression mode                         : Lossless
  95. Stream size                              : 1.15 GiB (4%)
  96. Title                                    : Flash.Gordon.1980.REMASTERED.1080p.BluRay.REMUX.AVC.DTS-HD.MA.5.1-FGT
  97. Language                                 : German
  98. Default                                  : No
  99. Forced                                   : No
  100. Original source medium                   : Blu-ray
  101. Audio #4
  102. ID                                       : 5
  103. ID in the original source medium         : 4355 (0x1103)
  104. Format                                   : DTS XLL
  105. Format/Info                              : Digital Theater Systems
  106. Commercial name                          : DTS-HD Master Audio
  107. Codec ID                                 : A_DTS
  108. Duration                                 : 1 h 51 min
  109. Bit rate mode                            : Variable
  110. Bit rate                                 : 1 473 kb/s
  111. Channel(s)                               : 2 channels
  112. Channel layout                           : L R
  113. Sampling rate                            : 48.0 kHz
  114. Frame rate                               : 93.750 FPS (512 SPF)
  115. Bit depth                                : 24 bits
  116. Compression mode                         : Lossless
  117. Stream size                              : 1.15 GiB (4%)
  118. Title                                    : Flash.Gordon.1980.REMASTERED.1080p.BluRay.REMUX.AVC.DTS-HD.MA.5.1-FGT
  119. Language                                 : French
  120. Default                                  : No
  121. Forced                                   : No
  122. Original source medium                   : Blu-ray
  123. Audio #5
  124. ID                                       : 6
  125. ID in the original source medium         : 4356 (0x1104)
  126. Format                                   : AC-3
  127. Format/Info                              : Audio Coding 3
  128. Commercial name                          : Dolby Digital
  129. Codec ID                                 : A_AC3
  130. Duration                                 : 1 h 51 min
  131. Bit rate mode                            : Constant
  132. Bit rate                                 : 192 kb/s
  133. Channel(s)                               : 2 channels
  134. Channel layout                           : L R
  135. Sampling rate                            : 48.0 kHz
  136. Frame rate                               : 31.250 FPS (1536 SPF)
  137. Bit depth                                : 16 bits
  138. Compression mode                         : Lossy
  139. Stream size                              : 153 MiB (0%)
  140. Title                                    : Flash.Gordon.1980.REMASTERED.1080p.BluRay.REMUX.AVC.DTS-HD.MA.5.1-FGT
  141. Language                                 : English
  142. Service kind                             : Complete Main
  143. Default                                  : No
  144. Forced                                   : No
  145. Original source medium                   : Blu-ray
  146. Audio #6
  147. ID                                       : 7
  148. ID in the original source medium         : 4357 (0x1105)
  149. Format                                   : AC-3
  150. Format/Info                              : Audio Coding 3
  151. Commercial name                          : Dolby Digital
  152. Codec ID                                 : A_AC3
  153. Duration                                 : 1 h 51 min
  154. Bit rate mode                            : Constant
  155. Bit rate                                 : 192 kb/s
  156. Channel(s)                               : 2 channels
  157. Channel layout                           : L R
  158. Sampling rate                            : 48.0 kHz
  159. Frame rate                               : 31.250 FPS (1536 SPF)
  160. Bit depth                                : 16 bits
  161. Compression mode                         : Lossy
  162. Stream size                              : 153 MiB (0%)
  163. Title                                    : Flash.Gordon.1980.REMASTERED.1080p.BluRay.REMUX.AVC.DTS-HD.MA.5.1-FGT
  164. Language                                 : English
  165. Service kind                             : Complete Main
  166. Default                                  : No
  167. Forced                                   : No
  168. Original source medium                   : Blu-ray
  169. Text #1
  170. ID                                       : 8
  171. Format                                   : UTF-8
  172. Codec ID                                 : S_TEXT/UTF8
  173. Codec ID/Info                            : UTF-8 Plain Text
  174. Duration                                 : 1 h 50 min
  175. Bit rate                                 : 43 b/s
  176. Count of elements                        : 952
  177. Stream size                              : 35.0 KiB (0%)
  178. Title                                    : English-SRT
  179. Language                                 : English
  180. Default                                  : Yes
  181. Forced                                   : No
  182. Text #2
  183. ID                                       : 9
  184. ID in the original source medium         : 4608 (0x1200)
  185. Format                                   : PGS
  186. Muxing mode                              : zlib
  187. Codec ID                                 : S_HDMV/PGS
  188. Codec ID/Info                            : Picture based subtitle format used on BDs/HD-DVDs
  189. Duration                                 : 1 h 50 min
  190. Bit rate                                 : 28.7 kb/s
  191. Count of elements                        : 2042
  192. Stream size                              : 22.7 MiB (0%)
  193. Title                                    : English-PGS
  194. Language                                 : English
  195. Default                                  : No
  196. Forced                                   : No
  197. Original source medium                   : Blu-ray
  198. Text #3
  199. ID                                       : 10
  200. ID in the original source medium         : 4609 (0x1201)
  201. Format                                   : PGS
  202. Muxing mode                              : zlib
  203. Codec ID                                 : S_HDMV/PGS
  204. Codec ID/Info                            : Picture based subtitle format used on BDs/HD-DVDs
  205. Duration                                 : 1 h 47 min
  206. Bit rate                                 : 25.0 kb/s
  207. Count of elements                        : 1632
  208. Stream size                              : 19.1 MiB (0%)
  209. Title                                    : German-PGS
  210. Language                                 : German
  211. Default                                  : No
  212. Forced                                   : No
  213. Original source medium                   : Blu-ray
  214. Text #4
  215. ID                                       : 11
  216. ID in the original source medium         : 4610 (0x1202)
  217. Format                                   : PGS
  218. Muxing mode                              : zlib
  219. Codec ID                                 : S_HDMV/PGS
  220. Codec ID/Info                            : Picture based subtitle format used on BDs/HD-DVDs
  221. Duration                                 : 1 h 46 min
  222. Bit rate                                 : 218 b/s
  223. Count of elements                        : 26
  224. Stream size                              : 170 KiB (0%)
  225. Title                                    : German-FORCED-PGS
  226. Language                                 : German
  227. Default                                  : No
  228. Forced                                   : No
  229. Original source medium                   : Blu-ray
  230. Text #5
  231. ID                                       : 12
  232. ID in the original source medium         : 4611 (0x1203)
  233. Format                                   : PGS
  234. Muxing mode                              : zlib
  235. Codec ID                                 : S_HDMV/PGS
  236. Codec ID/Info                            : Picture based subtitle format used on BDs/HD-DVDs
  237. Duration                                 : 1 h 50 min
  238. Bit rate                                 : 24.4 kb/s
  239. Count of elements                        : 2202
  240. Stream size                              : 19.3 MiB (0%)
  241. Title                                    : French-PGS
  242. Language                                 : French
  243. Default                                  : No
  244. Forced                                   : No
  245. Original source medium                   : Blu-ray
  246. Text #6
  247. ID                                       : 13
  248. ID in the original source medium         : 4612 (0x1204)
  249. Format                                   : PGS
  250. Muxing mode                              : zlib
  251. Codec ID                                 : S_HDMV/PGS
  252. Codec ID/Info                            : Picture based subtitle format used on BDs/HD-DVDs
  253. Duration                                 : 1 h 46 min
  254. Bit rate                                 : 133 b/s
  255. Count of elements                        : 22
  256. Stream size                              : 104 KiB (0%)
  257. Title                                    : French-FORCED-PGS
  258. Language                                 : French
  259. Default                                  : No
  260. Forced                                   : No
  261. Original source medium                   : Blu-ray
  262. Text #7
  263. ID                                       : 14
  264. ID in the original source medium         : 4613 (0x1205)
  265. Format                                   : PGS
  266. Muxing mode                              : zlib
  267. Codec ID                                 : S_HDMV/PGS
  268. Codec ID/Info                            : Picture based subtitle format used on BDs/HD-DVDs
  269. Duration                                 : 1 h 47 min
  270. Bit rate                                 : 57.5 kb/s
  271. Count of elements                        : 3186
  272. Stream size                              : 44.4 MiB (0%)
  273. Title                                    : English-COMMENTARY-PGS
  274. Language                                 : English
  275. Default                                  : No
  276. Forced                                   : No
  277. Original source medium                   : Blu-ray
  278. Text #8
  279. ID                                       : 15
  280. ID in the original source medium         : 4614 (0x1206)
  281. Format                                   : PGS
  282. Muxing mode                              : zlib
  283. Codec ID                                 : S_HDMV/PGS
  284. Codec ID/Info                            : Picture based subtitle format used on BDs/HD-DVDs
  285. Duration                                 : 1 h 47 min
  286. Bit rate                                 : 46.4 kb/s
  287. Count of elements                        : 2806
  288. Stream size                              : 35.8 MiB (0%)
  289. Title                                    : German-COMMENTARY-PGS
  290. Language                                 : German
  291. Default                                  : No
  292. Forced                                   : No
  293. Original source medium                   : Blu-ray
  294. Text #9
  295. ID                                       : 16
  296. ID in the original source medium         : 4615 (0x1207)
  297. Format                                   : PGS
  298. Muxing mode                              : zlib
  299. Codec ID                                 : S_HDMV/PGS
  300. Codec ID/Info                            : Picture based subtitle format used on BDs/HD-DVDs
  301. Duration                                 : 1 h 50 min
  302. Bit rate                                 : 38.6 kb/s
  303. Count of elements                        : 3344
  304. Stream size                              : 30.6 MiB (0%)
  305. Title                                    : French-COMMENTARY-PGS
  306. Language                                 : French
  307. Default                                  : No
  308. Forced                                   : No
  309. Original source medium                   : Blu-ray
  310. Text #10
  311. ID                                       : 17
  312. ID in the original source medium         : 4616 (0x1208)
  313. Format                                   : PGS
  314. Muxing mode                              : zlib
  315. Codec ID                                 : S_HDMV/PGS
  316. Codec ID/Info                            : Picture based subtitle format used on BDs/HD-DVDs
  317. Duration                                 : 1 h 49 min
  318. Bit rate                                 : 47.2 kb/s
  319. Count of elements                        : 3352
  320. Stream size                              : 37.1 MiB (0%)
  321. Title                                    : English-COMMENTARY-PGS
  322. Language                                 : English
  323. Default                                  : No
  324. Forced                                   : No
  325. Original source medium                   : Blu-ray
  326. Text #11
  327. ID                                       : 18
  328. ID in the original source medium         : 4617 (0x1209)
  329. Format                                   : PGS
  330. Muxing mode                              : zlib
  331. Codec ID                                 : S_HDMV/PGS
  332. Codec ID/Info                            : Picture based subtitle format used on BDs/HD-DVDs
  333. Duration                                 : 1 h 49 min
  334. Bit rate                                 : 51.1 kb/s
  335. Count of elements                        : 3370
  336. Stream size                              : 40.2 MiB (0%)
  337. Title                                    : German-COMMENTARY-PGS
  338. Language                                 : German
  339. Default                                  : No
  340. Forced                                   : No
  341. Original source medium                   : Blu-ray
  342. Text #12
  343. ID                                       : 19
  344. ID in the original source medium         : 4618 (0x120A)
  345. Format                                   : PGS
  346. Muxing mode                              : zlib
  347. Codec ID                                 : S_HDMV/PGS
  348. Codec ID/Info                            : Picture based subtitle format used on BDs/HD-DVDs
  349. Duration                                 : 1 h 51 min
  350. Bit rate                                 : 41.9 kb/s
  351. Count of elements                        : 3365
  352. Stream size                              : 33.3 MiB (0%)
  353. Title                                    : French-COMMENTARY-PGS
  354. Language                                 : French
  355. Default                                  : No
  356. Forced                                   : No
  357. Original source medium                   : Blu-ray
  358. Menu
  359. 00:00:00.000                             : en:Chapter 01
  360. 00:07:47.875                             : en:Chapter 02
  361. 00:18:23.083                             : en:Chapter 03
  362. 00:32:12.416                             : en:Chapter 04
  363. 00:37:45.916                             : en:Chapter 05
  364. 00:44:12.000                             : en:Chapter 06
  365. 00:54:21.000                             : en:Chapter 07
  366. 01:03:24.000                             : en:Chapter 08
  367. 01:10:38.833                             : en:Chapter 09
  368. 01:23:22.541                             : en:Chapter 10
  369. 01:35:01.416                             : en:Chapter 11
  370. 01:42:05.916                             : en:Chapter 12
复制代码






                                       
                                       

                                       
                                       
                                       




回复

使用道具 举报

懒得打字嘛,点击右侧快捷回复 【右侧内容,后台自定义】
您需要登录后才可以回帖 登录 | 立即加入

本版积分规则

Archiver|小黑屋| 蓝光电影网 |网站地图

Copyright © 2021 Comsenz Inc. Powered by 蓝光电影网

蓝光电影网

本站内容由用户自主分享和转载自互联网,转载目的在于传递更多信息,并不代表本网赞同其观点和对其真实性负责。

如有侵权、违反国家法律政策行为,请联系我们,我们会第一时间及时清除和处理!

举报反馈邮箱:[email protected]

快速回复 返回顶部 返回列表