找回密码

蓝光电影网

查看: 30|回复: 0

[奇幻] 小飞象/小飞象真人版 Dumbo.2019.1080p.BluRay.REMUX.AVC.DTS-HD.MA.TrueHD.7.1.Atmos-FGT 33.26GB

[复制链接]
蓝光币
511
发表于 2019-6-26 21:46:44 | 显示全部楼层 |阅读模式


◎译  名 小飞象 / 小飞象真人版
◎片  名 Dumbo
◎年  代 2019
◎产  地 美国
◎类  别 奇异 / 冒险
◎语  言 英语
◎上映日期 2019-03-29(美国/中国大陆)
◎IMDb评分  6.5/10 from 26607 users
◎IMDb链接  http://www.imdb.com/title/tt3861390
◎豆瓣评分 6.8/10 from 27773 users
◎豆瓣链接 https://movie.douban.com/subject/25924056/
◎片  长 112分钟
◎导  演 蒂姆·波顿 Tim Burton
◎编  剧 伊伦·克鲁格 Ehren Kruger
◎主  演 伊娃·格林 Eva Green
      科林·法瑞尔 Colin Farrell
      迈克尔·基顿 Michael Keaton
      妮可·帕克 Nico Parker
      芬利·霍宾斯 Finley Hobbins
      丹尼·德维托 Danny DeVito
      艾伦·阿金 Alan Arkin
      卡米尔·雷米泽斯基 Kamil Lemieszewski
      约瑟夫·盖特 Joseph Gatt
      桑迪·马丁 Sandy Martin
      乔·奥斯蒙德 Jo Osmond
      莎朗·鲁妮 Sharon Rooney
      拉斯·艾丁格 Lars Eidinger
      罗珊·塞斯 Roshan Seth
      道比·欧帕瑞 Deobia Oparei
      迈克尔·巴佛 Michael Buffer
      Jessie Vinning
      伯纳多·桑托斯 Bernardo Santos
      Bern Colla?o
      文森特·阿德里安 Vincent Andriano
      菲利普·罗施 Philip Rosch
      露西·德维托 Lucy DeVito
      Lampros Kalfuntzos
      Amerjit Deu
      Stephen Samson
      埃里克·海登 Erick Hayden

◎标  签 迪士尼 | 温情 | 童话 | 奇异 | 美国 | 真人版 | 动画 | 2019
◎简  介  
  迪士尼全新真人版《小飞象》改编自1941年推出的迪士尼同名典范动画,报告了生来因一双大耳朵而遭人嘲笑的小飞象,在众人的帮助下逐步拥抱自己的与众分歧,成就一段逆风翱翔的暖心传奇。
一位前马戏团明星,刚从战争火线归来,霍特·法瑞尔(科林·法瑞尔饰)在一家艰难经营的马戏团谋得一份工作,负责照顾刚诞生的小象,带着两个善良的孩子,女儿米莉·法瑞尔(尼科·帕克饰)和儿子乔·法瑞尔(芬利·霍宾斯饰),两个孩子和别的一个女孩玛茜特(蔡慧泉饰)与小飞象成为朋友, 帮助小飞象找到妈妈。
当人们发现小象会飞后,马戏团反复活机,更吸引到一个布满心机的买卖人文德维尔(迈克尔·基顿饰)的留意,他把小飞象雇佣到他的大型游乐场Dreamland,与杂技演员柯莱特·马钱特(伊娃·格林饰)做同伴,人气到达新高度,但是霍特·法瑞尔发现,游乐场鲜明亮丽的背后,布满各种见不得人的奥秘。

  1. Video
  2. ID                                       : 1
  3. Format                                   : AVC
  4. Format/Info                              : Advanced Video Codec
  5. Format profile                           : [email protected]
  6. Format settings                          : CABAC / 4 Ref Frames
  7. Format settings, CABAC                   : Yes
  8. Format settings, ReFrames                : 4 frames
  9. Codec ID                                 : V_MPEG4/ISO/AVC
  10. Duration                                 : 1 h 51 min
  11. Bit rate mode                            : Variable
  12. Bit rate                                 : 30.3 Mb/s
  13. Maximum bit rate                         : 33.0 Mb/s
  14. Width                                    : 1 920 pixels
  15. Height                                   : 1 080 pixels
  16. Display aspect ratio                     : 16:9
  17. Frame rate mode                          : Constant
  18. Frame rate                               : 23.976 (24000/1001) FPS
  19. Color space                              : YUV
  20. Chroma subsampling                       : 4:2:0
  21. Bit depth                                : 8 bits
  22. Scan type                                : Progressive
  23. Bits/(Pixel*Frame)                       : 0.609
  24. Stream size                              : 23.7 GiB (71%)
  25. Title                                    : Dumbo.2019.1080p.BluRay.REMUX.AVC.DTS-HD.MA.TrueHD.7.1.Atmos-FGT
  26. Language                                 : English
  27. Default                                  : No
  28. Forced                                   : No
  29. Audio #1
  30. ID                                       : 2
  31. Format                                   : MLP FBA 16-ch
  32. Format/Info                              : Meridian Lossless Packing FBA with 16-channel presentation
  33. Commercial name                          : Dolby TrueHD with Dolby Atmos
  34. Codec ID                                 : A_TRUEHD
  35. Duration                                 : 1 h 51 min
  36. Bit rate mode                            : Variable
  37. Bit rate                                 : 4 916 kb/s
  38. Maximum bit rate                         : 7 476 kb/s
  39. Channel(s)                               : 8 channels
  40. Channel layout                           : L R C LFE Ls Rs Lb Rb
  41. Sampling rate                            : 48.0 kHz
  42. Frame rate                               : 1 200.000 FPS (40 SPF)
  43. Compression mode                         : Lossless
  44. Stream size                              : 3.84 GiB (12%)
  45. Title                                    : Dumbo.2019.1080p.BluRay.REMUX.AVC.DTS-HD.MA.TrueHD.7.1.Atmos-FGT
  46. Language                                 : English
  47. Default                                  : Yes
  48. Forced                                   : No
  49. Number of dynamic objects                : 13
  50. Bed channel count                        : 1 channel
  51. Bed channel configuration                : LFE
  52. Audio #2
  53. ID                                       : 3
  54. Format                                   : DTS XLL
  55. Format/Info                              : Digital Theater Systems
  56. Commercial name                          : DTS-HD Master Audio
  57. Codec ID                                 : A_DTS
  58. Duration                                 : 1 h 51 min
  59. Bit rate mode                            : Variable
  60. Bit rate                                 : 5 022 kb/s
  61. Channel(s)                               : 8 channels
  62. Channel layout                           : C L R LFE Lb Rb Lss Rss
  63. Sampling rate                            : 48.0 kHz
  64. Frame rate                               : 93.750 FPS (512 SPF)
  65. Bit depth                                : 24 bits
  66. Compression mode                         : Lossless
  67. Stream size                              : 3.93 GiB (12%)
  68. Title                                    : Dumbo.2019.1080p.BluRay.REMUX.AVC.DTS-HD.MA.TrueHD.7.1.Atmos-FGT
  69. Language                                 : English
  70. Default                                  : No
  71. Forced                                   : No
  72. Audio #3
  73. ID                                       : 4
  74. Format                                   : AC-3
  75. Format/Info                              : Audio Coding 3
  76. Commercial name                          : Dolby Digital
  77. Codec ID                                 : A_AC3
  78. Duration                                 : 1 h 51 min
  79. Bit rate mode                            : Constant
  80. Bit rate                                 : 640 kb/s
  81. Channel(s)                               : 6 channels
  82. Channel layout                           : L R C LFE Ls Rs
  83. Sampling rate                            : 48.0 kHz
  84. Frame rate                               : 31.250 FPS (1536 SPF)
  85. Bit depth                                : 16 bits
  86. Compression mode                         : Lossy
  87. Stream size                              : 512 MiB (2%)
  88. Title                                    : Dumbo.2019.1080p.BluRay.REMUX.AVC.DTS-HD.MA.TrueHD.7.1.Atmos-FGT
  89. Language                                 : English
  90. Service kind                             : Complete Main
  91. Default                                  : No
  92. Forced                                   : No
  93. Audio #4
  94. ID                                       : 5
  95. Format                                   : AC-3
  96. Format/Info                              : Audio Coding 3
  97. Commercial name                          : Dolby Digital
  98. Codec ID                                 : A_AC3
  99. Duration                                 : 1 h 51 min
  100. Bit rate mode                            : Constant
  101. Bit rate                                 : 320 kb/s
  102. Channel(s)                               : 2 channels
  103. Channel layout                           : L R
  104. Sampling rate                            : 48.0 kHz
  105. Frame rate                               : 31.250 FPS (1536 SPF)
  106. Bit depth                                : 16 bits
  107. Compression mode                         : Lossy
  108. Stream size                              : 256 MiB (1%)
  109. Title                                    : Dumbo.2019.1080p.BluRay.REMUX.AVC.DTS-HD.MA.TrueHD.7.1.Atmos-FGT
  110. Language                                 : English
  111. Service kind                             : Complete Main
  112. Default                                  : No
  113. Forced                                   : No
  114. Audio #5
  115. ID                                       : 6
  116. Format                                   : AC-3
  117. Format/Info                              : Audio Coding 3
  118. Commercial name                          : Dolby Digital
  119. Codec ID                                 : A_AC3
  120. Duration                                 : 1 h 51 min
  121. Bit rate mode                            : Constant
  122. Bit rate                                 : 640 kb/s
  123. Channel(s)                               : 6 channels
  124. Channel layout                           : L R C LFE Ls Rs
  125. Sampling rate                            : 48.0 kHz
  126. Frame rate                               : 31.250 FPS (1536 SPF)
  127. Bit depth                                : 16 bits
  128. Compression mode                         : Lossy
  129. Stream size                              : 512 MiB (2%)
  130. Title                                    : Dumbo.2019.1080p.BluRay.REMUX.AVC.DTS-HD.MA.TrueHD.7.1.Atmos-FGT
  131. Language                                 : French
  132. Service kind                             : Complete Main
  133. Default                                  : No
  134. Forced                                   : No
  135. Audio #6
  136. ID                                       : 7
  137. Format                                   : AC-3
  138. Format/Info                              : Audio Coding 3
  139. Commercial name                          : Dolby Digital
  140. Codec ID                                 : A_AC3
  141. Duration                                 : 1 h 51 min
  142. Bit rate mode                            : Constant
  143. Bit rate                                 : 640 kb/s
  144. Channel(s)                               : 6 channels
  145. Channel layout                           : L R C LFE Ls Rs
  146. Sampling rate                            : 48.0 kHz
  147. Frame rate                               : 31.250 FPS (1536 SPF)
  148. Bit depth                                : 16 bits
  149. Compression mode                         : Lossy
  150. Stream size                              : 512 MiB (2%)
  151. Title                                    : Dumbo.2019.1080p.BluRay.REMUX.AVC.DTS-HD.MA.TrueHD.7.1.Atmos-FGT
  152. Language                                 : Spanish
  153. Service kind                             : Complete Main
  154. Default                                  : No
  155. Forced                                   : No
  156. Text #1
  157. ID                                       : 8
  158. Format                                   : UTF-8
  159. Codec ID                                 : S_TEXT/UTF8
  160. Codec ID/Info                            : UTF-8 Plain Text
  161. Duration                                 : 1 h 41 min
  162. Bit rate                                 : 41 b/s
  163. Count of elements                        : 1210
  164. Stream size                              : 31.1 KiB (0%)
  165. Title                                    : English-SRT
  166. Language                                 : English
  167. Default                                  : Yes
  168. Forced                                   : No
  169. Text #2
  170. ID                                       : 9
  171. Format                                   : UTF-8
  172. Codec ID                                 : S_TEXT/UTF8
  173. Codec ID/Info                            : UTF-8 Plain Text
  174. Duration                                 : 1 h 43 min
  175. Bit rate                                 : 51 b/s
  176. Count of elements                        : 1565
  177. Stream size                              : 39.3 KiB (0%)
  178. Title                                    : English-SDH-SRT
  179. Language                                 : English
  180. Default                                  : No
  181. Forced                                   : No
  182. Text #3
  183. ID                                       : 10
  184. Format                                   : PGS
  185. Muxing mode                              : zlib
  186. Codec ID                                 : S_HDMV/PGS
  187. Codec ID/Info                            : Picture based subtitle format used on BDs/HD-DVDs
  188. Duration                                 : 1 h 43 min
  189. Bit rate                                 : 35.7 kb/s
  190. Count of elements                        : 3130
  191. Stream size                              : 26.5 MiB (0%)
  192. Title                                    : English-PGS
  193. Language                                 : English
  194. Default                                  : No
  195. Forced                                   : No
  196. Text #4
  197. ID                                       : 11
  198. Format                                   : PGS
  199. Muxing mode                              : zlib
  200. Codec ID                                 : S_HDMV/PGS
  201. Codec ID/Info                            : Picture based subtitle format used on BDs/HD-DVDs
  202. Duration                                 : 1 h 51 min
  203. Bit rate                                 : 26.2 kb/s
  204. Count of elements                        : 2350
  205. Stream size                              : 20.9 MiB (0%)
  206. Title                                    : French-PGS
  207. Language                                 : French
  208. Default                                  : No
  209. Forced                                   : No
  210. Text #5
  211. ID                                       : 12
  212. Format                                   : PGS
  213. Muxing mode                              : zlib
  214. Codec ID                                 : S_HDMV/PGS
  215. Codec ID/Info                            : Picture based subtitle format used on BDs/HD-DVDs
  216. Duration                                 : 1 h 41 min
  217. Bit rate                                 : 27.8 kb/s
  218. Count of elements                        : 2320
  219. Stream size                              : 20.2 MiB (0%)
  220. Title                                    : Spanish-PGS
  221. Language                                 : Spanish
  222. Default                                  : No
  223. Forced                                   : No
  224. Text #6
  225. ID                                       : 13
  226. Format                                   : PGS
  227. Muxing mode                              : zlib
  228. Codec ID                                 : S_HDMV/PGS
  229. Codec ID/Info                            : Picture based subtitle format used on BDs/HD-DVDs
  230. Duration                                 : 1 h 44 min
  231. Bit rate                                 : 340 b/s
  232. Count of elements                        : 40
  233. Stream size                              : 260 KiB (0%)
  234. Title                                    : French-FORCED-PGS
  235. Language                                 : French
  236. Default                                  : No
  237. Forced                                   : No
  238. Text #7
  239. ID                                       : 14
  240. Format                                   : PGS
  241. Muxing mode                              : zlib
  242. Codec ID                                 : S_HDMV/PGS
  243. Codec ID/Info                            : Picture based subtitle format used on BDs/HD-DVDs
  244. Duration                                 : 1 h 14 min
  245. Bit rate                                 : 605 b/s
  246. Count of elements                        : 26
  247. Stream size                              : 330 KiB (0%)
  248. Title                                    : Spanish-FORCED-PGS
  249. Language                                 : Spanish
  250. Default                                  : No
  251. Forced                                   : No
  252. Menu
  253. 00:00:00.000                             : en:Chapter 01
  254. 00:02:49.460                             : en:Chapter 02
  255. 00:06:46.072                             : en:Chapter 03
  256. 00:11:23.766                             : en:Chapter 04
  257. 00:16:33.993                             : en:Chapter 05
  258. 00:19:20.492                             : en:Chapter 06
  259. 00:26:08.233                             : en:Chapter 07
  260. 00:27:46.331                             : en:Chapter 08
  261. 00:31:07.782                             : en:Chapter 09
  262. 00:35:09.023                             : en:Chapter 10
  263. 00:40:44.984                             : en:Chapter 11
  264. 00:46:44.927                             : en:Chapter 12
  265. 00:50:23.937                             : en:Chapter 13
  266. 00:57:15.265                             : en:Chapter 14
  267. 01:01:53.126                             : en:Chapter 15
  268. 01:07:18.784                             : en:Chapter 16
  269. 01:10:11.665                             : en:Chapter 17
  270. 01:14:47.858                             : en:Chapter 18
  271. 01:18:05.055                             : en:Chapter 19
  272. 01:27:55.895                             : en:Chapter 20
  273. 01:37:09.532                             : en:Chapter 21
  274. 01:39:41.100                             : en:Chapter 22
  275. 01:44:02.611                             : en:Chapter 23
复制代码






                                       
                                       

                                       
                                       
                                       




回复

使用道具 举报

懒得打字嘛,点击右侧快捷回复 【右侧内容,后台自定义】
您需要登录后才可以回帖 登录 | 立即加入

本版积分规则

Archiver|小黑屋| 蓝光电影网 |网站地图

Copyright © 2021 Comsenz Inc. Powered by 蓝光电影网

蓝光电影网

本站内容由用户自主分享和转载自互联网,转载目的在于传递更多信息,并不代表本网赞同其观点和对其真实性负责。

如有侵权、违反国家法律政策行为,请联系我们,我们会第一时间及时清除和处理!

举报反馈邮箱:[email protected]

快速回复 返回顶部 返回列表