找回密码

蓝光电影网

查看: 11|回复: 0

[动作] 枪神 剧场版 Trigun.Badlands.Rumble.2010.1080p.BluRay.x264-WaLMaRT 5.46GB

[复制链接]
蓝光币
511
发表于 2019-8-21 05:23:14 | 显示全部楼层 |阅读模式


◎译  名 枪神 戏院版 / TRIGUN Badlands Rumble
◎片  名 TRIGUN Badlands Rumble
◎年  代 2010
◎产  地 日本
◎类  别 行动 / 科幻 / 动画 / 西部
◎语  言 日语
◎上映日期 2010-04-24
◎IMDb评分  7.5/10 from 4426 users
◎IMDb链接  http://www.imdb.com/title/tt1703049
◎豆瓣评分 8.1/10 from 1942 users
◎豆瓣链接 https://movie.douban.com/subject/4111521/
◎片  长 91分钟
◎导  演 西村聪
◎编  剧 小林靖子 Yasuko Kobayashi
◎主  演 小野坂昌也 Masaya Onosaka
       速水奖 Sh? Hayami
       鹤广美 Hiromi Tsuru
       雪野五月 Satsuki Yukino
       坂本真绫 Maaya Sakamoto
       矶部勉 Tsutomu Isobe
       岛田敏 Bin Shimada
       立木文彦 Fumihiko Tachiki
       飞田展男 Nobuo Tobita
       楠大典 Taiten Kusunoki
       井上喜久子 Kikuko Inoue
       三宅健太 Kenta Miyake
       逢坂力
       樱井敏治 Toshiharu Sakurai
       西岛阳一
       奈良彻 Tooru Nara
       川原庆久 Yoshihisa Kawahara
       近藤广务
       小野健一 Ono Ken`ichi
       小柳基
       藤真秀
       近藤浩徳 Hironori Kondo
       永木贵依子
       泷佳保子
       宫川美保 Miho Miyagawa
       洞内爱
       矢口麻美 Yaguchi Asami

◎标  签 戏院版 | 动画 | 日本动画 | 日本 | Trigun | 动漫 | 2010 | MADhouse
◎简  介  
  内藤泰弘创作的SF漫画「TRIGUN枪神」,以其拉风的人设、出色松散的剧情赢得众多读者的好评,该作曾于1998年推出全26话的TV动画,而早在客岁就预定2009年内公然的戏院版却是至今仍未见踪影。在众FANS纠结于戏院版能否永不面世之际,日前官方终究再度敲定戏院版的公然期为2010年春。「TRIGUN THE MOVIE」是以正篇中的设定为框架的原创故事,并继续由TV版的建造会社MAD HOUSE操刀。
  【TVA STORY】
  在荒凉化的移民星球上,有一个仿如西部时代的小城镇,在那边有一个代价六百亿的头号通缉犯——瓦修?德?斯坦彼特,被称为“世纪大台风”的他具有神乎其技的枪法,传闻他会给所到之处带来杀戮与扑灭,前来缉捕他的赏金猎人络驿不停,惋惜最初都以失利了结。为了避免他再次破坏,保险观察员梅丽尔和米莉展开了观察行动。在与瓦修打仗后两人发现他与传闻完全分歧,现实是一个温柔善良、尊更生命的人,而他一向流浪的缘由是为了寻觅想扑灭人类的哥哥耐布兹。后来瓦修一行人在沙漠中碰到枪法与他不相高低的尼古拉斯,四人的漫无目标冒险之旅自此展开。
  【STAFF】
  监视:西村聪
  动画建造:MAD HOUSE
  【CAST】TFt动漫FANS
  瓦修?德?斯坦彼特:小野坂昌也
  尼古拉斯?D?乌弗乌:速水奖
  梅丽尔:鹤ひろみ
  米莉:雪野五月
  1. Video
  2. ID                                       : 1
  3. Format                                   : AVC
  4. Format/Info                              : Advanced Video Codec
  5. Format profile                           : [email protected]
  6. Format settings, CABAC                   : Yes
  7. Format settings, ReFrames                : 4 frames
  8. Codec ID                                 : V_MPEG4/ISO/AVC
  9. Duration                                 : 1h 30mn
  10. Bit rate                                 : 7 732 Kbps
  11. Width                                    : 1 920 pixels
  12. Height                                   : 1 080 pixels
  13. Display aspect ratio                     : 16:9
  14. Frame rate mode                          : Constant
  15. Frame rate                               : 23.976 fps
  16. Color space                              : YUV
  17. Chroma subsampling                       : 4:2:0
  18. Bit depth                                : 8 bits
  19. Scan type                                : Progressive
  20. Bits/(Pixel*Frame)                       : 0.156
  21. Stream size                              : 4.78 GiB (88%)
  22. Writing library                          : x264 core 142 r2431 ac76440
  23. Encoding settings                        : cabac=1 / ref=4 / deblock=1:0:0 / analyse=0x3:0x113 / me=umh / subme=8 / psy=1 / psy_rd=1.00:0.00 / mixed_ref=1 / me_range=16 / chroma_me=1 / trellis=1 / 8x8dct=1 / cqm=0 / deadzone=21,11 / fast_pskip=1 / chroma_qp_offset=-2 / threads=12 / lookahead_threads=2 / sliced_threads=0 / nr=0 / decimate=1 / interlaced=0 / bluray_compat=0 / constrained_intra=0 / bframes=3 / b_pyramid=2 / b_adapt=2 / b_bias=0 / direct=3 / weightb=1 / open_gop=0 / weightp=2 / keyint=250 / keyint_min=23 / scenecut=40 / intra_refresh=0 / rc_lookahead=50 / rc=2pass / mbtree=1 / bitrate=7732 / ratetol=1.0 / qcomp=0.60 / qpmin=0 / qpmax=69 / qpstep=4 / cplxblur=20.0 / qblur=0.5 / ip_ratio=1.40 / aq=1:1.00
  24. Default                                  : Yes
  25. Forced                                   : No

  26. Audio #1
  27. ID                                       : 2
  28. Format                                   : AC-3
  29. Format/Info                              : Audio Coding 3
  30. Mode extension                           : CM (complete main)
  31. Format settings, Endianness              : Big
  32. Codec ID                                 : A_AC3
  33. Duration                                 : 1h 30mn
  34. Bit rate mode                            : Constant
  35. Bit rate                                 : 448 Kbps
  36. Channel(s)                               : 6 channels
  37. Channel positions                        : Front: L C R, Side: L R, LFE
  38. Sampling rate                            : 48.0 KHz
  39. Bit depth                                : 16 bits
  40. Compression mode                         : Lossy
  41. Stream size                              : 290 MiB (5%)
  42. Title                                    : Japenese
  43. Language                                 : Japanese
  44. Default                                  : Yes
  45. Forced                                   : No

  46. Audio #2
  47. ID                                       : 3
  48. Format                                   : AC-3
  49. Format/Info                              : Audio Coding 3
  50. Mode extension                           : CM (complete main)
  51. Format settings, Endianness              : Big
  52. Codec ID                                 : A_AC3
  53. Duration                                 : 1h 30mn
  54. Bit rate mode                            : Constant
  55. Bit rate                                 : 448 Kbps
  56. Channel(s)                               : 6 channels
  57. Channel positions                        : Front: L C R, Side: L R, LFE
  58. Sampling rate                            : 48.0 KHz
  59. Bit depth                                : 16 bits
  60. Compression mode                         : Lossy
  61. Stream size                              : 290 MiB (5%)
  62. Title                                    : English
  63. Language                                 : English
  64. Default                                  : No
  65. Forced                                   : No

  66. Text
  67. ID                                       : 4
  68. Format                                   : UTF-8
  69. Codec ID                                 : S_TEXT/UTF8
  70. Codec ID/Info                            : UTF-8 Plain Text
  71. Title                                    : English
  72. Language                                 : English
  73. Default                                  : Yes
  74. Forced                                   : No
复制代码




                                       
                                       

                                       
                                       
                                       




回复

使用道具 举报

懒得打字嘛,点击右侧快捷回复 【右侧内容,后台自定义】
您需要登录后才可以回帖 登录 | 立即加入

本版积分规则

Archiver|小黑屋| 蓝光电影网 |网站地图

Copyright © 2021 Comsenz Inc. Powered by 蓝光电影网

蓝光电影网

本站内容由用户自主分享和转载自互联网,转载目的在于传递更多信息,并不代表本网赞同其观点和对其真实性负责。

如有侵权、违反国家法律政策行为,请联系我们,我们会第一时间及时清除和处理!

举报反馈邮箱:[email protected]

快速回复 返回顶部 返回列表