找回密码

蓝光电影网

查看: 11|回复: 0

[动作] 4度空间大师 4D.Man.1959.1080p.BluRay.x264.DTS-FGT 7.63GB

[复制链接]
蓝光币
730
发表于 2019-8-21 05:01:27 | 显示全部楼层 |阅读模式


◎译  名 4度空间大师 / The Evil Force / 穿墙人
◎片  名 4D Man
◎年  代 1959
◎产  地 美国
◎类  别 行动 / 恋爱 / 科幻 / 惊悚 / 可骇
◎语  言 英语
◎上映日期 1959-10-07
◎IMDb评分  5.8/10 from 1365 users
◎IMDb链接  http://www.imdb.com/title/tt0052530
◎豆瓣评分 0/10 from 0 users
◎豆瓣链接 https://movie.douban.com/subject/1292940/
◎片  长 85 分钟
◎导  演 小艾尔文·S·伊沃斯 Irvin S. Yeaworth Jr.
◎编  剧 Cy Chermak / Jack H. Harris
◎主  演 罗伯特·兰辛 Robert Lansing
       李·麦瑞威瑟 Lee Meriwether
       James Congdon

◎标  签 科幻 | 美国 | Sci-Fi | 1950s | 1966 | 美國 | 美国电影 | 50
◎简  介  
  一位科学家在一次实验中,发现用脑波可以使一只铅笔穿透铜板,不外,他的尝试室在一次大火中扑灭,这位科学家不能不投靠他的哥哥。他的哥哥也在停止着另一项尝试,他发现重新组合原子结构可以发生庞大能量。他与弟弟合作,操纵弟弟的脑波和尝试心得,改变任何物资结构,构成“四度空间人”。
  不外,“四度空间人”利用一次均会落空时候而老化,必须不竭增加能源,而每次吸收能量,就会将老化转移他人,因而他不竭杀人以保持青春。究竟四度空间人会不会终极被消灭,请观众自己品味。
  本片构想新奇,应用高科技手段拍摄,是观众怀孕临高科技时代的感受,固然,这指的是身在影片所属的年月!
  1. Video
  2. ID                                       : 1
  3. Format                                   : AVC
  4. Format/Info                              : Advanced Video Codec
  5. Format profile                           : [email protected]
  6. Format settings                          : CABAC / 4 Ref Frames
  7. Format settings, CABAC                   : Yes
  8. Format settings, Reference frames        : 4 frames
  9. Codec ID                                 : V_MPEG4/ISO/AVC
  10. Duration                                 : 1 h 25 min
  11. Bit rate                                 : 11.5 Mb/s
  12. Width                                    : 1 920 pixels
  13. Height                                   : 1 036 pixels
  14. Display aspect ratio                     : 1.85:1
  15. Frame rate mode                          : Constant
  16. Frame rate                               : 23.976 (24000/1001) FPS
  17. Color space                              : YUV
  18. Chroma subsampling                       : 4:2:0
  19. Bit depth                                : 8 bits
  20. Scan type                                : Progressive
  21. Bits/(Pixel*Frame)                       : 0.241
  22. Stream size                              : 6.83 GiB (90%)
  23. Title                                    : 4D.Man.1959.1080p.BluRay.x264.DTS-FGT
  24. Writing library                          : x264 core 148 r2795M aaa9aa8
  25. Encoding settings                        : cabac=1 / ref=4 / deblock=1:-2:-2 / analyse=0x3:0x113 / me=umh / subme=9 / psy=1 / psy_rd=1.00:0.15 / mixed_ref=1 / me_range=16 / chroma_me=1 / trellis=2 / 8x8dct=1 / cqm=0 / deadzone=21,11 / fast_pskip=1 / chroma_qp_offset=-3 / threads=24 / lookahead_threads=3 / sliced_threads=0 / nr=0 / decimate=1 / interlaced=0 / bluray_compat=0 / constrained_intra=0 / bframes=3 / b_pyramid=2 / b_adapt=1 / b_bias=0 / direct=3 / weightb=1 / open_gop=0 / weightp=2 / keyint=250 / keyint_min=25 / scenecut=40 / intra_refresh=0 / rc_lookahead=50 / rc=2pass / mbtree=1 / bitrate=11500 / ratetol=1.0 / qcomp=0.60 / qpmin=0 / qpmax=69 / qpstep=4 / cplxblur=20.0 / qblur=0.5 / vbv_maxrate=31250 / vbv_bufsize=31250 / nal_hrd=none / filler=0 / ip_ratio=1.40 / aq=1:1.00
  26. Language                                 : English
  27. Default                                  : Yes
  28. Forced                                   : No
  29. Audio
  30. ID                                       : 2
  31. Format                                   : DTS
  32. Format/Info                              : Digital Theater Systems
  33. Codec ID                                 : A_DTS
  34. Duration                                 : 1 h 25 min
  35. Bit rate mode                            : Constant
  36. Bit rate                                 : 1 344 kb/s
  37. Channel(s)                               : 2 channels
  38. Channel layout                           : L R
  39. Sampling rate                            : 48.0 kHz
  40. Frame rate                               : 93.750 FPS (512 SPF)
  41. Bit depth                                : 16 bits
  42. Compression mode                         : Lossy
  43. Stream size                              : 817 MiB (10%)
  44. Title                                    : 4D.Man.1959.1080p.BluRay.x264.DTS-FGT
  45. Language                                 : English
  46. Default                                  : Yes
  47. Forced                                   : No
  48. Text
  49. ID                                       : 3
  50. Format                                   : UTF-8
  51. Codec ID                                 : S_TEXT/UTF8
  52. Codec ID/Info                            : UTF-8 Plain Text
  53. Duration                                 : 1 h 21 min
  54. Bit rate                                 : 55 b/s
  55. Count of elements                        : 945
  56. Stream size                              : 33.5 KiB (0%)
  57. Language                                 : English
  58. Default                                  : Yes
  59. Forced                                   : No
  60. Menu
  61. 00:00:00.000                             : en:Chapter 00
  62. 00:11:31.982                             : en:Chapter 01
  63. 00:22:13.874                             : en:Chapter 02
  64. 00:34:37.116                             : en:Chapter 03
  65. 00:44:10.898                             : en:Chapter 04
  66. 00:54:48.994                             : en:Chapter 05
  67. 01:04:10.805                             : en:Chapter 06
  68. 01:13:56.432                             : en:Chapter 07
复制代码






                                       
                                       

                                       
                                       
                                       




回复

使用道具 举报

懒得打字嘛,点击右侧快捷回复 【右侧内容,后台自定义】
您需要登录后才可以回帖 登录 | 立即加入

本版积分规则

Archiver|小黑屋| 蓝光电影网 |网站地图

Copyright © 2021 Comsenz Inc. Powered by 蓝光电影网

蓝光电影网

本站内容由用户自主分享和转载自互联网,转载目的在于传递更多信息,并不代表本网赞同其观点和对其真实性负责。

如有侵权、违反国家法律政策行为,请联系我们,我们会第一时间及时清除和处理!

举报反馈邮箱:[email protected]

快速回复 返回顶部 返回列表