找回密码

蓝光电影网

查看: 24|回复: 0

[喜剧] 谁杀了斑比?/谁杀了小鹿斑比? Quien.mato.a.Bambi.2013.SPANISH.1080p.BluRay.x264-HANDJOB 7.60GB

[复制链接]
蓝光币
733
发表于 2020-11-21 13:05:55 | 显示全部楼层 |阅读模式


◎译  名 谁杀了斑比?/谁杀了小鹿斑比?
◎片  名 ?Quién mató a Bambi?
◎年  代 2013
◎产  地 西班牙
◎类  别 笑剧 / 犯罪
◎语  言 西班牙语
◎上映日期 2013-10-25
◎IMDb评分  5.6/10 from 1154 users
◎IMDb链接  https://www.imdb.com/title/tt2604346/
◎豆瓣评分 6.7/10 from 362 users
◎豆瓣链接 https://movie.douban.com/subject/21663500/
◎片  长 90分钟
◎导  演 Santi Amodeo
◎编  剧 Santi Amodeo
◎主  演 克拉拉·拉戈 Clara Lago
       胡里安·毕亚格兰 Julián Villagrán
       Joaquín Nú?ez
       基姆·古铁雷斯 Quim Gutiérrez
       安德列斯·伊涅斯塔·卢扬 Andrés Iniesta Luján
       欧内斯特·艾戴里欧 Ernesto Alterio
       卡米娜·巴利奥斯 Carmina Barrios
◎标  签 西班牙 | 笑剧 | 黑色诙谐 | 西班牙电影 | 2013 | 犯罪 | 狗血 | 电影
◎简  介


  一对死党护送公司老板,亦即其中一人的爸爸回家,却在汽车后备箱发现料想外的突发状态;另一方面,一位贩子与他的合作伙伴为处理债权题目决议实施一场绑架,不幸的是鬼使神差之下绑架了自己的父亲。一系列乌龙事务将素昧生平的两方牵扯到一路……
  1. Video
  2. ID                                       : 1
  3. Format                                   : AVC
  4. Format/Info                              : Advanced Video Codec
  5. Format profile                           : [email protected]
  6. Format settings                          : CABAC / 5 Ref Frames
  7. Format settings, CABAC                   : Yes
  8. Format settings, Reference frames        : 5 frames
  9. Codec ID                                 : V_MPEG4/ISO/AVC
  10. Duration                                 : 1 h 29 min
  11. Bit rate                                 : 11.5 Mb/s
  12. Width                                    : 1 920 pixels
  13. Height                                   : 816 pixels
  14. Display aspect ratio                     : 2.35:1
  15. Frame rate mode                          : Constant
  16. Frame rate                               : 24.000 FPS
  17. Color space                              : YUV
  18. Chroma subsampling                       : 4:2:0
  19. Bit depth                                : 8 bits
  20. Scan type                                : Progressive
  21. Bits/(Pixel*Frame)                       : 0.306
  22. Stream size                              : 7.19 GiB (95%)
  23. Writing library                          : x264 core 157 r2935 545de2f
  24. Encoding settings                        : cabac=1 / ref=5 / deblock=1:-3:-3 / analyse=0x3:0x133 / me=umh / subme=10 / psy=1 / psy_rd=1.00:0.00 / mixed_ref=1 / me_range=32 / chroma_me=1 / trellis=2 / 8x8dct=1 / cqm=0 / deadzone=21,11 / fast_pskip=0 / chroma_qp_offset=-2 / threads=25 / lookahead_threads=2 / sliced_threads=0 / nr=0 / decimate=0 / interlaced=0 / bluray_compat=0 / constrained_intra=0 / bframes=6 / b_pyramid=2 / b_adapt=2 / b_bias=0 / direct=3 / weightb=1 / open_gop=0 / weightp=2 / keyint=240 / keyint_min=24 / scenecut=40 / intra_refresh=0 / rc_lookahead=60 / rc=crf / mbtree=0 / crf=16.6 / qcomp=0.60 / qpmin=0 / qpmax=69 / qpstep=4 / vbv_maxrate=62500 / vbv_bufsize=78125 / crf_max=0.0 / nal_hrd=none / filler=0 / ip_ratio=1.40 / pb_ratio=1.30 / aq=2:1.00
  25. Default                                  : Yes
  26. Forced                                   : No
  27. Color range                              : Limited
  28. Color primaries                          : BT.709
  29. Transfer characteristics                 : BT.709
  30. Matrix coefficients                      : BT.709
  31. Audio
  32. ID                                       : 2
  33. Format                                   : AC-3
  34. Format/Info                              : Audio Coding 3
  35. Commercial name                          : Dolby Digital
  36. Codec ID                                 : A_AC3
  37. Duration                                 : 1 h 29 min
  38. Bit rate mode                            : Constant
  39. Bit rate                                 : 640 kb/s
  40. Channel(s)                               : 6 channels
  41. Channel layout                           : L R C LFE Ls Rs
  42. Sampling rate                            : 48.0 kHz
  43. Frame rate                               : 31.250 FPS (1536 SPF)
  44. Compression mode                         : Lossy
  45. Stream size                              : 411 MiB (5%)
  46. Language                                 : Spanish
  47. Service kind                             : Complete Main
  48. Default                                  : Yes
  49. Forced                                   : No
  50. Text #1
  51. ID                                       : 3
  52. Format                                   : UTF-8
  53. Codec ID                                 : S_TEXT/UTF8
  54. Codec ID/Info                            : UTF-8 Plain Text
  55. Duration                                 : 1 h 23 min
  56. Bit rate                                 : 45 b/s
  57. Count of elements                        : 916
  58. Stream size                              : 27.8 KiB (0%)
  59. Language                                 : English
  60. Default                                  : Yes
  61. Forced                                   : No
  62. Text #2
  63. ID                                       : 4
  64. Format                                   : PGS
  65. Muxing mode                              : zlib
  66. Codec ID                                 : S_HDMV/PGS
  67. Codec ID/Info                            : Picture based subtitle format used on BDs/HD-DVDs
  68. Duration                                 : 1 h 24 min
  69. Bit rate                                 : 40.5 kb/s
  70. Count of elements                        : 2312
  71. Stream size                              : 24.4 MiB (0%)
  72. Language                                 : Spanish
  73. Default                                  : No
  74. Forced                                   : No
  75. Menu
  76. 00:00:00.000                             : :Chapter 01
  77. 00:07:33.667                             : :Chapter 02
  78. 00:14:54.292                             : :Chapter 03
  79. 00:21:35.833                             : :Chapter 04
  80. 00:30:27.000                             : :Chapter 05
  81. 00:37:29.417                             : :Chapter 06
  82. 00:44:50.375                             : :Chapter 07
  83. 00:52:06.958                             : :Chapter 08
  84. 00:58:40.958                             : :Chapter 09
  85. 01:07:37.625                             : :Chapter 10
  86. 01:13:49.208                             : :Chapter 11
  87. 01:22:45.958                             : :Chapter 12
复制代码






                                       
                                       

                                       
                                       
                                       




回复

使用道具 举报

懒得打字嘛,点击右侧快捷回复 【右侧内容,后台自定义】
您需要登录后才可以回帖 登录 | 立即加入

本版积分规则

Archiver|小黑屋| 蓝光电影网 |网站地图

Copyright © 2021 Comsenz Inc. Powered by 蓝光电影网

蓝光电影网

本站内容由用户自主分享和转载自互联网,转载目的在于传递更多信息,并不代表本网赞同其观点和对其真实性负责。

如有侵权、违反国家法律政策行为,请联系我们,我们会第一时间及时清除和处理!

举报反馈邮箱:[email protected]

快速回复 返回顶部 返回列表