找回密码

蓝光电影网

查看: 13|回复: 0

[其他] 恐怖公墓 Grave.Robbers.1989.SPANISH.1080p.BluRay.x264-HANDJOB 6.02GB

[复制链接]
蓝光币
511
发表于 2020-9-29 18:52:24 | 显示全部楼层 |阅读模式


◎译  名 可骇公墓
◎片  名 grave robbers
◎年  代 1990
◎产  地 墨西哥
◎类  别 悬疑 / 惊悚 / 可骇
◎语  言 西班牙语
◎上映日期 1990-11-08
◎IMDb评分  6.2/10 from 298 users
◎IMDb链接  https://www.imdb.com/title/tt0282672/
◎豆瓣评分 /10 from 0 users
◎豆瓣链接 https://movie.douban.com/subject/2067503/
◎片  长 Mexico: 87 分钟
◎导  演 Rubén Galindo Jr.
◎编  剧 卡洛斯·巴尔德马尔 Carlos Valdemar / Rubén Galindo Jr.
◎主  演 Ana Graham
       玛丽亚·蕾贝卡 María Rebeca
       Andrea Legarreta
       Ernesto Laguardia
       Roberto Ca?edo
       Erika Buenfil
       Fernando Almada
       Edna Bolkan
◎标  签 惊悚 | 可骇 | 墨西哥电影 | 典范 | 正鄙人 | 悬疑 | 墨西哥 | 国外电影
◎简  介


  暂无相关剧情先容
  1. Video
  2. ID                                       : 1
  3. Format                                   : AVC
  4. Format/Info                              : Advanced Video Codec
  5. Format profile                           : [email protected]
  6. Format settings                          : CABAC / 4 Ref Frames
  7. Format settings, CABAC                   : Yes
  8. Format settings, Reference frames        : 4 frames
  9. Codec ID                                 : V_MPEG4/ISO/AVC
  10. Duration                                 : 1 h 28 min
  11. Bit rate                                 : 9 251 kb/s
  12. Width                                    : 1 920 pixels
  13. Height                                   : 1 036 pixels
  14. Display aspect ratio                     : 1.85:1
  15. Frame rate mode                          : Constant
  16. Frame rate                               : 23.976 (24000/1001/189150) FPS
  17. Color space                              : YUV
  18. Chroma subsampling                       : 4:2:0
  19. Bit depth                                : 8 bits
  20. Scan type                                : Progressive
  21. Bits/(Pixel*Frame)                       : 0.194
  22. Stream size                              : 5.72 GiB (95%)
  23. Writing library                          : x264 core 157 r2935 545de2f
  24. Encoding settings                        : cabac=1 / ref=4 / deblock=1:-3:-3 / analyse=0x3:0x133 / me=umh / subme=10 / psy=1 / psy_rd=1.00:0.00 / mixed_ref=1 / me_range=32 / chroma_me=1 / trellis=2 / 8x8dct=1 / cqm=0 / deadzone=21,11 / fast_pskip=0 / chroma_qp_offset=-2 / threads=18 / lookahead_threads=4 / sliced_threads=0 / nr=0 / decimate=0 / interlaced=0 / bluray_compat=0 / constrained_intra=0 / bframes=16 / b_pyramid=2 / b_adapt=2 / b_bias=0 / direct=3 / weightb=1 / open_gop=0 / weightp=1 / keyint=240 / keyint_min=24 / scenecut=40 / intra_refresh=0 / rc_lookahead=60 / rc=crf / mbtree=0 / crf=22.0 / qcomp=0.60 / qpmin=0 / qpmax=69 / qpstep=4 / vbv_maxrate=62500 / vbv_bufsize=78125 / crf_max=0.0 / nal_hrd=none / filler=0 / ip_ratio=1.40 / pb_ratio=1.30 / aq=2:1.00
  25. Default                                  : Yes
  26. Forced                                   : No
  27. Color range                              : Limited
  28. Color primaries                          : BT.709
  29. Transfer characteristics                 : BT.709
  30. Matrix coefficients                      : BT.709
  31. Audio #1
  32. ID                                       : 2
  33. Format                                   : FLAC
  34. Format/Info                              : Free Lossless Audio Codec
  35. Codec ID                                 : A_FLAC
  36. Duration                                 : 1 h 28 min
  37. Bit rate mode                            : Variable
  38. Bit rate                                 : 403 kb/s
  39. Channel(s)                               : 1 channel
  40. Sampling rate                            : 48.0 kHz
  41. Frame rate                               : 11.719 FPS (4096 SPF)
  42. Bit depth                                : 16 bits
  43. Compression mode                         : Lossless
  44. Stream size                              : 255 MiB (4%)
  45. Writing library                          : libFLAC 1.2.1 (UTC 2007-09-17)
  46. Language                                 : Spanish
  47. Default                                  : Yes
  48. Forced                                   : No
  49. Audio #2
  50. ID                                       : 3
  51. Format                                   : AAC LC SBR
  52. Format/Info                              : Advanced Audio Codec Low Complexity with Spectral Band Replication
  53. Commercial name                          : HE-AAC
  54. Format settings                          : Explicit
  55. Codec ID                                 : A_AAC-2
  56. Duration                                 : 1 h 28 min
  57. Bit rate                                 : 80.0 kb/s
  58. Channel(s)                               : 2 channels
  59. Channel layout                           : L R
  60. Sampling rate                            : 48.0 kHz
  61. Frame rate                               : 23.438 FPS (2048 SPF)
  62. Compression mode                         : Lossy
  63. Delay relative to video                  : 31 ms
  64. Stream size                              : 50.6 MiB (1%)
  65. Title                                    : Commentary track with The Hysteria Continues!
  66. Language                                 : English
  67. Default                                  : No
  68. Forced                                   : No
  69. Text
  70. ID                                       : 4
  71. Format                                   : UTF-8
  72. Codec ID                                 : S_TEXT/UTF8
  73. Codec ID/Info                            : UTF-8 Plain Text
  74. Duration                                 : 1 h 25 min
  75. Bit rate                                 : 26 b/s
  76. Count of elements                        : 757
  77. Stream size                              : 16.7 KiB (0%)
  78. Language                                 : English
  79. Default                                  : Yes
  80. Forced                                   : No
  81. Menu
  82. 00:00:00.000                             : :Chapter 1
  83. 00:19:28.292                             : :Chapter 2
  84. 00:39:41.921                             : :Chapter 3
  85. 00:59:40.077                             : :Chapter 4
  86. 01:17:55.254                             : :Chapter 5
复制代码





                                       
                                       

                                       
                                       
                                       




回复

使用道具 举报

懒得打字嘛,点击右侧快捷回复 【右侧内容,后台自定义】
您需要登录后才可以回帖 登录 | 立即加入

本版积分规则

Archiver|小黑屋| 蓝光电影网 |网站地图

Copyright © 2021 Comsenz Inc. Powered by 蓝光电影网

蓝光电影网

本站内容由用户自主分享和转载自互联网,转载目的在于传递更多信息,并不代表本网赞同其观点和对其真实性负责。

如有侵权、违反国家法律政策行为,请联系我们,我们会第一时间及时清除和处理!

举报反馈邮箱:[email protected]

快速回复 返回顶部 返回列表