找回密码

蓝光电影网

查看: 45|回复: 1

[喜剧] 富貴列車 The.Millionaires.Express.1986.1080p.BluRay.x264-GiMCHi 6.56GB

[复制链接]
蓝光币
515
发表于 2020-11-21 12:57:50 | 显示全部楼层 |阅读模式


◎译  名 富贵列车/Millionaire's Express/Shanghai Express
◎片  名 富貴列車
◎年  代 1986
◎产  地 中国香港
◎类  别 笑剧 / 行动 / 西部
◎语  言 粤语
◎上映日期 1986-01-30
◎IMDb评分  7.1/10 from 1403 users
◎IMDb链接  https://www.imdb.com/title/tt0091091/
◎豆瓣评分 7.4/10 from 8317 users
◎豆瓣链接 https://movie.douban.com/subject/1300508/
◎片  长 Argentina: 94 分钟
◎导  演 洪金宝 Sammo Hung Kam-Bo
◎编  剧 黄炳耀 Barry Wong / 张坚庭 Alfred Cheung / 黄宏基 Keith Wong
◎主  演 洪金宝 Sammo Hung Kam-Bo
       钟镇涛 Kenny Bee
       关之琳 Rosamund Kwan
       元彪 Biao Yuen
       郑文雅 Olivia Cheng
       沈殿霞 Lydia Shum
       曾志伟 Eric Tsang
       林正英 Ching-Ying Lam
       狄威 Dick Wei
       钱嘉乐 Kar Lok Chin
       苏杏璇 Hang Shuen So
       张冲 Paul Chang Chung
       太保 Po Tai
       王玉环 Pauline Wong Yuk-Wan
       吕红 Hung Lu
       林富伟 Fu-wai Lam
       彭润祥 Yun-chiang Peng
       狄波拉 Deborah Lee
       潘丽贤 Lai-Yin Poon
       田俊 James Tien Chun
       区海伦 Hoi-Lun Au
       刘家荣 Chia Yung Liu
       吴耀汉 Richard Ng
       黄正利 Jang Lee Hwang
       仓田保昭 Yasuaki Kurata
       罗芙洛 Cynthia Rothrock
       大岛由加利 Yukari ?shima
       杨斯 Bolo Yeung
       朱宝意 Emily Chu
       元华 Wah Yuen
       楼南光 Billy Lau
       林建明 Meg Lam
       元德 Tak Yuen
       孟海 Hoi Mang
       石坚 Kien Shih
       理查德·诺顿 Richard Norton
       樊梅生 Mei Sheng Fan
       午马 Wu Ma
       王羽 Yu Wang
◎标  签 笑剧 | 洪金宝 | 香港 | 行动 | 香港电影 | 1986 | 关之琳 | 钟镇涛
◎简  介


  民国初年,上海至成都的铁路通行了。首班列车的出发引发了黑帮留意,由于上面满是富朱紫家,因而他们勾结山贼预备中途劫车。专门偷鸡摸狗的程启天(洪金宝 饰)也打上了这趟列车的主张,为了能摸上列车,他决议炸毁故乡汉水镇前的一段铁路,然后伺机上车。不意程启天被当地保安队长曹卓坚(元彪 饰)认出他是通缉犯,因而想缉捕他归案。程启天侥幸躲过追捕,顺遂炸毁了铁路。这恰好帮了山贼一个大忙,他们起头团团围攻汉水镇。眼看故乡行将毁于山贼之手,程、曹两人决议结合起来共抗强敌。
◎获奖情况
  第6届香港电影金像奖 ?(1987)
  最好原创电影歌曲(提名) 潘源良?/?林敏怡
  1. Video
  2. ID                                       : 1
  3. Format                                   : AVC
  4. Format/Info                              : Advanced Video Codec
  5. Format profile                           : [email protected]
  6. Format settings                          : CABAC / 5 Ref Frames
  7. Format settings, CABAC                   : Yes
  8. Format settings, Reference frames        : 5 frames
  9. Codec ID                                 : V_MPEG4/ISO/AVC
  10. Duration                                 : 1 h 29 min
  11. Bit rate                                 : 8 924 kb/s
  12. Width                                    : 1 920 pixels
  13. Height                                   : 816 pixels
  14. Display aspect ratio                     : 2.35:1
  15. Frame rate mode                          : Constant
  16. Frame rate                               : 23.976 (24000/1001/189150) FPS
  17. Color space                              : YUV
  18. Chroma subsampling                       : 4:2:0
  19. Bit depth                                : 8 bits
  20. Scan type                                : Progressive
  21. Bits/(Pixel*Frame)                       : 0.238
  22. Stream size                              : 5.61 GiB (86%)
  23. Writing library                          : x264 core 148 r2721 72d53ab
  24. Encoding settings                        : cabac=1 / ref=5 / deblock=1:0:0 / analyse=0x3:0x133 / me=umh / subme=7 / psy=1 / psy_rd=1.00:0.00 / mixed_ref=1 / me_range=16 / chroma_me=1 / trellis=2 / 8x8dct=1 / cqm=0 / deadzone=21,11 / fast_pskip=0 / chroma_qp_offset=-2 / threads=12 / lookahead_threads=2 / sliced_threads=0 / nr=0 / decimate=1 / interlaced=0 / bluray_compat=0 / constrained_intra=0 / bframes=3 / b_pyramid=2 / b_adapt=1 / b_bias=0 / direct=3 / weightb=1 / open_gop=0 / weightp=2 / keyint=240 / keyint_min=23 / scenecut=40 / intra_refresh=0 / rc_lookahead=50 / rc=2pass / mbtree=1 / bitrate=8924 / ratetol=1.0 / qcomp=0.60 / qpmin=0 / qpmax=69 / qpstep=4 / cplxblur=20.0 / qblur=0.5 / ip_ratio=1.40 / aq=1:1.00
  25. Language                                 : English
  26. Default                                  : Yes
  27. Forced                                   : No
  28. Audio
  29. ID                                       : 2
  30. Format                                   : DTS
  31. Format/Info                              : Digital Theater Systems
  32. Codec ID                                 : A_DTS
  33. Duration                                 : 1 h 29 min
  34. Bit rate mode                            : Constant
  35. Bit rate                                 : 1 509 kb/s
  36. Channel(s)                               : 6 channels
  37. Channel layout                           : C L R Ls Rs LFE
  38. Sampling rate                            : 48.0 kHz
  39. Frame rate                               : 93.750 FPS (512 SPF)
  40. Bit depth                                : 24 bits
  41. Compression mode                         : Lossy
  42. Stream size                              : 970 MiB (14%)
  43. Language                                 : Chinese
  44. Default                                  : Yes
  45. Forced                                   : No
  46. Text
  47. ID                                       : 3
  48. Format                                   : UTF-8
  49. Codec ID                                 : S_TEXT/UTF8
  50. Codec ID/Info                            : UTF-8 Plain Text
  51. Duration                                 : 1 h 27 min
  52. Bit rate                                 : 39 b/s
  53. Count of elements                        : 1040
  54. Stream size                              : 25.4 KiB (0%)
  55. Language                                 : English
  56. Default                                  : Yes
  57. Forced                                   : No
  58. Menu
  59. 00:00:00.000                             : en:00:00:00.000
  60. 00:02:42.829                             : en:00:02:42.829
  61. 00:07:46.299                             : en:00:07:46.299
  62. 00:11:55.298                             : en:00:11:55.298
  63. 00:13:54.250                             : en:00:13:54.250
  64. 00:17:27.713                             : en:00:17:27.713
  65. 00:20:25.141                             : en:00:20:25.141
  66. 00:24:51.073                             : en:00:24:51.073
  67. 00:31:21.755                             : en:00:31:21.755
  68. 00:35:01.850                             : en:00:35:01.850
  69. 00:39:05.760                             : en:00:39:05.760
  70. 00:45:03.701                             : en:00:45:03.701
  71. 00:52:12.629                             : en:00:52:12.629
  72. 01:00:37.551                             : en:01:00:37.551
  73. 01:04:34.454                             : en:01:04:34.454
  74. 01:08:13.339                             : en:01:08:13.339
  75. 01:14:25.294                             : en:01:14:25.294
  76. 01:17:58.549                             : en:01:17:58.549
  77. 01:22:16.181                             : en:01:22:16.181
  78. 01:25:20.115                             : en:01:25:20.115
复制代码






                                       
                                       

                                       
                                       
                                       




回复

使用道具 举报

蓝光币
73
发表于 2021-9-23 00:32:28 | 显示全部楼层
经典搞笑影片!
回复 支持 反对

使用道具 举报

懒得打字嘛,点击右侧快捷回复 【右侧内容,后台自定义】
您需要登录后才可以回帖 登录 | 立即加入

本版积分规则

Archiver|小黑屋| 蓝光电影网 |网站地图

Copyright © 2021 Comsenz Inc. Powered by 蓝光电影网

蓝光电影网

本站内容由用户自主分享和转载自互联网,转载目的在于传递更多信息,并不代表本网赞同其观点和对其真实性负责。

如有侵权、违反国家法律政策行为,请联系我们,我们会第一时间及时清除和处理!

举报反馈邮箱:[email protected]

快速回复 返回顶部 返回列表