找回密码

蓝光电影网

查看: 12|回复: 0

[动作] 金星战记 Venus.Wars.1989.JAPANESE.1080p.BluRay.x264.DTS-FGT 9.42GB

[复制链接]
蓝光币
515
发表于 2019-8-21 04:40:00 | 显示全部楼层 |阅读模式


◎译  名 金星战记 / Venus Wars
◎片  名 ヴイナス戦記
◎年  代 1989
◎产  地 日本
◎类  别 行动 / 科幻 / 动画
◎语  言 日语
◎IMDb评分  6.7/10 from 1333 users
◎IMDb链接  http://www.imdb.com/title/tt0135037
◎豆瓣评分 7.6/10 from 529 users
◎豆瓣链接 https://movie.douban.com/subject/2973319/
◎片  长 102 分钟
◎导  演 安彦良和 Yoshikazu Yasuhiko
◎编  剧 安彦良和 Yoshikazu Yasuhiko
◎主  演 植草克秀 Katsuhide Uekusa
       水谷优子 Y?ko Mizutani
       原惠理子 Eriko Hara
       佐佐木优子 Y?ko Sasaki
       纳谷悟郎 Gor? Naya
       大塚芳忠 H?ch? ?tsuka
       吉田小南美 Konami Yoshida
       菊池正美 Masami Kikuchi
       梁田清之 Kiyoyuki Yanada
       河口宏
       池田秀一 Sh?ichi Ikeda
       盐泽兼人 Kaneto Shiozawa
       藤本让 Yuzuru Fujimoto
       玄田哲章 Tessh? Genda
       仁内建之
       秋元羊介 Y?suke Akimoto
       泽木郁也 Ikuya Sawaki
       逢坂秀实
       稻叶实 Minoru Inaba
       乡里大辅 Daisuke G?ri
       山寺宏一 K?ichi Yamadera
       柏仓敦 Tsutomu Kashiwakura
       卷岛直树 Makishima Naoki
       星野充昭 Mitsuaki Hoshino
       桥本博
       山冈庆子
       铃木宏之

◎标  签 动画 | 日本 | 安彦良和 | 科幻 | 日本动画 | 1989 | 戏院版 | 久石让
◎简  介  
  西元2003年5月,金星相隔3千年后再度与庞大冰状行星冲撞,丰富的碳酸大气层是以遭到破坏,接着地表起头发生酸性陆地,并出现了地球型的大气层。人类随即起头动手金星的地球化以及移民计划,并于2018年(金星历元年)将首批移民团送至伊修塔尔大陆,但由于金星的地盘却超乎想像的贫瘠,因而人们又再度为了争取地盘而掀起战端。金星历72年,金星被朋分红伊修塔尔与爱芙罗黛蒂两大自治州,第二、三批移民团也相继到达,自力通讯社记者,苏珊.索玛兹亦是其中之一。此时,让金星的人们最感应热衷的就是在爱芙罗黛蒂的都城.伊娥市所停止的机车大赛“绕圈赛”;参赛车队之一的“杀手突击队”在蜜兰达的带领下,希洛、玛姬等人也都有相当优异的表示。某日在角逐的途中,忽然出现了数百辆的伊修塔尔重型战车“章鱼”,伊娥市因此遭到占据,希洛等人也遭遭到了迫害,后来“杀手突击队”的这群年轻人终究自告奋勇,试图抵抗这群侵犯者。拯救了希洛的爱芙罗黛蒂军游击队“猎犬”队长.卡兹上尉,送给了希洛一部特别机车兵器“猎犬”。在不安与失望当中,希洛、玛姬、蜜兰达等人也接连地被卷入这场战争……
  1. Video
  2. ID                                       : 1
  3. Format                                   : AVC
  4. Format/Info                              : Advanced Video Codec
  5. Format profile                           : [email protected]
  6. Format settings                          : CABAC / 4 Ref Frames
  7. Format settings, CABAC                   : Yes
  8. Format settings, Reference frames        : 4 frames
  9. Codec ID                                 : V_MPEG4/ISO/AVC
  10. Duration                                 : 1 h 43 min
  11. Bit rate                                 : 11.5 Mb/s
  12. Width                                    : 1 920 pixels
  13. Height                                   : 1 080 pixels
  14. Display aspect ratio                     : 16:9
  15. Frame rate mode                          : Constant
  16. Frame rate                               : 23.976 (24000/1001) FPS
  17. Color space                              : YUV
  18. Chroma subsampling                       : 4:2:0
  19. Bit depth                                : 8 bits
  20. Scan type                                : Progressive
  21. Bits/(Pixel*Frame)                       : 0.231
  22. Stream size                              : 8.32 GiB (88%)
  23. Title                                    : Venus.Wars.1989.JAPANESE.1080p.BluRay.x264.DTS-FGT
  24. Writing library                          : x264 core 148 r2795M aaa9aa8
  25. Encoding settings                        : cabac=1 / ref=4 / deblock=1:1:1 / analyse=0x3:0x113 / me=umh / subme=8 / psy=1 / psy_rd=0.50:0.00 / mixed_ref=1 / me_range=32 / chroma_me=1 / trellis=2 / 8x8dct=1 / cqm=0 / deadzone=21,11 / fast_pskip=1 / chroma_qp_offset=-2 / threads=34 / lookahead_threads=3 / sliced_threads=0 / nr=0 / decimate=1 / interlaced=0 / bluray_compat=0 / constrained_intra=0 / bframes=3 / b_pyramid=2 / b_adapt=1 / b_bias=0 / direct=3 / weightb=1 / open_gop=0 / weightp=2 / keyint=240 / keyint_min=24 / scenecut=40 / intra_refresh=0 / rc_lookahead=50 / rc=2pass / mbtree=1 / bitrate=11500 / ratetol=1.0 / qcomp=0.60 / qpmin=0 / qpmax=69 / qpstep=4 / cplxblur=20.0 / qblur=0.5 / vbv_maxrate=31250 / vbv_bufsize=31250 / nal_hrd=none / filler=0 / ip_ratio=1.40 / aq=3:0.60
  26. Language                                 : Japanese
  27. Default                                  : Yes
  28. Forced                                   : No
  29. Audio
  30. ID                                       : 2
  31. Format                                   : DTS
  32. Format/Info                              : Digital Theater Systems
  33. Codec ID                                 : A_DTS
  34. Duration                                 : 1 h 43 min
  35. Bit rate mode                            : Constant
  36. Bit rate                                 : 1 509 kb/s
  37. Channel(s)                               : 2 channels
  38. Channel layout                           : L R
  39. Sampling rate                            : 48.0 kHz
  40. Frame rate                               : 93.750 FPS (512 SPF)
  41. Bit depth                                : 16 bits
  42. Compression mode                         : Lossy
  43. Stream size                              : 1.09 GiB (12%)
  44. Title                                    : Venus.Wars.1989.JAPANESE.1080p.BluRay.x264.DTS-FGT
  45. Language                                 : Japanese
  46. Default                                  : Yes
  47. Forced                                   : No
  48. Text
  49. ID                                       : 3
  50. Format                                   : UTF-8
  51. Codec ID                                 : S_TEXT/UTF8
  52. Codec ID/Info                            : UTF-8 Plain Text
  53. Duration                                 : 1 h 41 min
  54. Bit rate                                 : 44 b/s
  55. Count of elements                        : 998
  56. Stream size                              : 32.9 KiB (0%)
  57. Language                                 : English
  58. Default                                  : Yes
  59. Forced                                   : No
  60. Menu
  61. 00:00:00.000                             : en:Chapter 01
  62. 00:04:17.924                             : en:Chapter 02
  63. 00:10:45.603                             : en:Chapter 03
  64. 00:17:15.743                             : en:Chapter 04
  65. 00:26:54.029                             : en:Chapter 05
  66. 00:42:53.654                             : en:Chapter 06
  67. 00:59:06.126                             : en:Chapter 07
  68. 01:11:50.598                             : en:Chapter 08
  69. 01:25:12.566                             : en:Chapter 09
  70. 01:35:19.589                             : en:Chapter 10
  71. 01:39:31.382                             : en:Chapter 11
  72. 01:43:26.700                             : en:Chapter 12
复制代码






                                       
                                       

                                       
                                       
                                       




回复

使用道具 举报

懒得打字嘛,点击右侧快捷回复 【右侧内容,后台自定义】
您需要登录后才可以回帖 登录 | 立即加入

本版积分规则

Archiver|小黑屋| 蓝光电影网 |网站地图

Copyright © 2021 Comsenz Inc. Powered by 蓝光电影网

蓝光电影网

本站内容由用户自主分享和转载自互联网,转载目的在于传递更多信息,并不代表本网赞同其观点和对其真实性负责。

如有侵权、违反国家法律政策行为,请联系我们,我们会第一时间及时清除和处理!

举报反馈邮箱:[email protected]

快速回复 返回顶部 返回列表