找回密码

蓝光电影网

查看: 15|回复: 0

[喜剧] 名声大噪 We.Love.You.Sally.Carmichael.2017.1080p.BluRay.x264-HANDJOB 7.31GB

[复制链接]
蓝光币
511
发表于 2020-11-21 12:47:35 | 显示全部楼层 |阅读模式


◎译  名 名声大噪
◎片  名 We Love You, Sally Carmichael!
◎年  代 2017
◎产  地 美国
◎类  别 笑剧
◎语  言 英语
◎上映日期 2017-08-04(美国)
◎IMDb评分  6.2/10 from 380 users
◎IMDb链接  https://www.imdb.com/title/tt5664676/
◎豆瓣评分 6.0/10 from 170 users
◎豆瓣链接 https://movie.douban.com/subject/26780660/
◎片  长 84分钟
◎导  演 克里斯托弗·戈勒姆 Christopher Gorham
◎编  剧 Daryn Tufts
◎主  演 菲丽西亚·戴 Felicia Day
       保拉·马绍尔 Paula Marshall
       克里斯托弗·戈勒姆 Christopher Gorham
       比茜·图诺克 Bitsie Tulloch
       杰克·麦克布瑞尔 Jack McBrayer
       塞巴斯蒂安·罗奇 Sebastian Roché
       艾丽西娅·汉娜 Alicia Hannah
       鲍勃·斯蒂芬森 Bob Stephenson
       Charan Prabhakar
       佩雷兹·希尔顿 Perez Hilton
       莎拉·珍恩·杰森 Sarah Jayne Jensen
       杰克·布朗 Jake Brown
       K·达诺尔·杰拉德 K. Danor Gerald
◎标  签 笑剧 | 美国 | 家庭 | 剧情 | 社会 | 美国电影 | 文艺 | ChristopherGorham
◎简  介


  “Sally Carmichael” will shoot in Utah this summer. Gorham will portray an author who is ashamed to have secretly written an incredibly popular series of young adult romance novels that chronicle the epic love story between a human girl and a merman — all under the pen name, Sally Carmichael. When he is forced to meet a top box office star about the movie adaptation of a Sally Carmichael book, the author’s carefully built life of anonymity starts crumbling down around him.
  1. Video
  2. ID                                       : 1
  3. Format                                   : AVC
  4. Format/Info                              : Advanced Video Codec
  5. Format profile                           : [email protected]
  6. Format settings                          : CABAC / 4 Ref Frames
  7. Format settings, CABAC                   : Yes
  8. Format settings, Reference frames        : 4 frames
  9. Codec ID                                 : V_MPEG4/ISO/AVC
  10. Duration                                 : 1 h 23 min
  11. Bit rate                                 : 11.9 Mb/s
  12. Width                                    : 1 920 pixels
  13. Height                                   : 1 080 pixels
  14. Display aspect ratio                     : 16:9
  15. Frame rate mode                          : Constant
  16. Frame rate                               : 23.976 (24000/1001/189150) FPS
  17. Color space                              : YUV
  18. Chroma subsampling                       : 4:2:0
  19. Bit depth                                : 8 bits
  20. Scan type                                : Progressive
  21. Bits/(Pixel*Frame)                       : 0.240
  22. Stream size                              : 6.94 GiB (95%)
  23. Writing library                          : x264 core 155 r2917 0a84d98
  24. Encoding settings                        : cabac=1 / ref=4 / deblock=1:-3:-3 / analyse=0x3:0x133 / me=umh / subme=10 / psy=1 / psy_rd=1.00:0.00 / mixed_ref=1 / me_range=32 / chroma_me=1 / trellis=2 / 8x8dct=1 / cqm=0 / deadzone=21,11 / fast_pskip=0 / chroma_qp_offset=-2 / threads=34 / lookahead_threads=8 / sliced_threads=0 / nr=0 / decimate=0 / interlaced=0 / bluray_compat=0 / constrained_intra=0 / bframes=16 / b_pyramid=2 / b_adapt=2 / b_bias=0 / direct=3 / weightb=1 / open_gop=0 / weightp=1 / keyint=240 / keyint_min=24 / scenecut=40 / intra_refresh=0 / rc_lookahead=60 / rc=crf / mbtree=0 / crf=15.0 / qcomp=0.60 / qpmin=0 / qpmax=69 / qpstep=4 / vbv_maxrate=62500 / vbv_bufsize=78125 / crf_max=0.0 / nal_hrd=none / filler=0 / ip_ratio=1.40 / pb_ratio=1.30 / aq=1:0.70
  25. Default                                  : Yes
  26. Forced                                   : No
  27. Color range                              : Limited
  28. Color primaries                          : BT.709
  29. Transfer characteristics                 : BT.709
  30. Matrix coefficients                      : BT.709
  31. Audio
  32. ID                                       : 2
  33. Format                                   : AC-3
  34. Format/Info                              : Audio Coding 3
  35. Commercial name                          : Dolby Digital
  36. Codec ID                                 : A_AC3
  37. Duration                                 : 1 h 23 min
  38. Bit rate mode                            : Constant
  39. Bit rate                                 : 640 kb/s
  40. Channel(s)                               : 6 channels
  41. Channel layout                           : L R C LFE Ls Rs
  42. Sampling rate                            : 48.0 kHz
  43. Frame rate                               : 31.250 FPS (1536 SPF)
  44. Compression mode                         : Lossy
  45. Stream size                              : 381 MiB (5%)
  46. Language                                 : English
  47. Service kind                             : Complete Main
  48. Default                                  : Yes
  49. Forced                                   : No
  50. Menu
  51. 00:00:00.000                             : :Chapter 1
  52. 00:08:00.063                             : :Chapter 2
  53. 00:20:37.945                             : :Chapter 3
  54. 00:31:29.471                             : :Chapter 4
  55. 00:42:08.401                             : :Chapter 5
  56. 00:52:35.653                             : :Chapter 6
  57. 01:02:03.136                             : :Chapter 7
  58. 01:10:52.248                             : :Chapter 8
  59. 01:20:18.522                             : :Chapter 9
复制代码





                                       
                                       

                                       
                                       
                                       




回复

使用道具 举报

懒得打字嘛,点击右侧快捷回复 【右侧内容,后台自定义】
您需要登录后才可以回帖 登录 | 立即加入

本版积分规则

Archiver|小黑屋| 蓝光电影网 |网站地图

Copyright © 2021 Comsenz Inc. Powered by 蓝光电影网

蓝光电影网

本站内容由用户自主分享和转载自互联网,转载目的在于传递更多信息,并不代表本网赞同其观点和对其真实性负责。

如有侵权、违反国家法律政策行为,请联系我们,我们会第一时间及时清除和处理!

举报反馈邮箱:[email protected]

快速回复 返回顶部 返回列表