找回密码

蓝光电影网

查看: 17|回复: 0

[喜剧] 阶梯下的恶魔/楼下亡魂 The.People.Under.the.Stairs.1991.1080p.BluRay.X264-AMIABLE 6.55GB

[复制链接]
蓝光币
511
发表于 2020-11-21 09:52:41 | 显示全部楼层 |阅读模式


◎译  名 门路下的恶魔/楼下亡魂/饿鬼之家
◎片  名 The People Under the Stairs
◎年  代 1991
◎产  地 美国
◎类  别 笑剧 / 悬疑 / 惊悚 / 可骇
◎语  言 英语
◎上映日期 1991-11-01
◎IMDb评分  6.4/10 from 31088 users
◎IMDb链接  https://www.imdb.com/title/tt0105121/
◎豆瓣评分 6.8/10 from 722 users
◎豆瓣链接 https://movie.douban.com/subject/1293431/
◎片  长 102 分钟
◎导  演 韦斯·克雷文 Wes Craven
◎编  剧 韦斯·克雷文 Wes Craven
◎主  演 布兰登·昆恩·亚当斯 Brandon Quintin Adams
       埃沃雷特·麦克吉尔 Everett McGill
       Wendy Robie
       Nic Cramer
◎标  签 可骇 | 美国 | 惊悚 | 悬疑 | 美国电影 | 笑剧 | 1991 | Wes_Craven
◎简  介


  绰号“笨蛋”的13岁男孩(布兰登·昆恩·亚当斯 Brandon Quintin Adams 饰)一家住在穷户窟。“笨蛋”的母亲身患沉痾,急需治疗,而他们一家却被房东迫令顿时搬走。为了守住屋子并为母亲治病,“笨蛋”听取了勒罗伊(文·瑞姆斯 Ving Rhames 饰)的倡议,计划到污名昭著的房店主盗窃。坊间关于房东佳耦有很多传闻,据称他们的屋子里藏着无以计数的金币,还有人说这是一间可骇的屋子,途经的人都不敢扭头去看一眼。而终究潜入房店主后,“笨蛋”却发现这所大屋子的门路之下,隐藏着非常血腥的奥秘……
  1. Video
  2. ID                                       : 1
  3. Format                                   : AVC
  4. Format/Info                              : Advanced Video Codec
  5. Format profile                           : [email protected]
  6. Format settings                          : CABAC / 4 Ref Frames
  7. Format settings, CABAC                   : Yes
  8. Format settings, Reference frames        : 4 frames
  9. Codec ID                                 : V_MPEG4/ISO/AVC
  10. Duration                                 : 1 h 41 min
  11. Bit rate                                 : 8 569 kb/s
  12. Width                                    : 1 920 pixels
  13. Height                                   : 1 040 pixels
  14. Display aspect ratio                     : 1.85:1
  15. Frame rate mode                          : Constant
  16. Frame rate                               : 23.976 (24000/1001/189150) FPS
  17. Color space                              : YUV
  18. Chroma subsampling                       : 4:2:0
  19. Bit depth                                : 8 bits
  20. Scan type                                : Progressive
  21. Bits/(Pixel*Frame)                       : 0.179
  22. Stream size                              : 5.97 GiB (91%)
  23. Writing library                          : x264 core 138 r2358 9e941d1
  24. Encoding settings                        : cabac=1 / ref=4 / deblock=1:-3:-3 / analyse=0x3:0x113 / me=umh / subme=8 / psy=1 / psy_rd=1.00:0.00 / mixed_ref=1 / me_range=16 / chroma_me=1 / trellis=1 / 8x8dct=1 / cqm=0 / deadzone=21,11 / fast_pskip=1 / chroma_qp_offset=-2 / threads=12 / lookahead_threads=2 / sliced_threads=0 / nr=0 / decimate=1 / interlaced=0 / bluray_compat=0 / constrained_intra=0 / bframes=3 / b_pyramid=2 / b_adapt=2 / b_bias=0 / direct=3 / weightb=1 / open_gop=0 / weightp=2 / keyint=240 / keyint_min=24 / scenecut=40 / intra_refresh=0 / rc_lookahead=50 / rc=2pass / mbtree=1 / bitrate=8569 / ratetol=1.0 / qcomp=0.60 / qpmin=0 / qpmax=69 / qpstep=4 / cplxblur=20.0 / qblur=0.5 / ip_ratio=1.40 / aq=1:1.00
  25. Language                                 : English
  26. Default                                  : Yes
  27. Forced                                   : No

  28. Audio
  29. ID                                       : 2
  30. Format                                   : AC-3
  31. Format/Info                              : Audio Coding 3
  32. Commercial name                          : Dolby Digital
  33. Codec ID                                 : A_AC3
  34. Duration                                 : 1 h 41 min
  35. Bit rate mode                            : Constant
  36. Bit rate                                 : 640 kb/s
  37. Channel(s)                               : 6 channels
  38. Channel(s)_Original                      : 2 channels
  39. ChannelLayout_Original                   : L R
  40. Sampling rate                            : 48.0 kHz
  41. Frame rate                               : 31.250 FPS (1536 SPF)
  42. Compression mode                         : Lossy
  43. Stream size                              : 467 MiB (7%)
  44. Language                                 : English
  45. Service kind                             : Complete Main
  46. Default                                  : Yes
  47. Forced                                   : No

  48. Text #1
  49. ID                                       : 3
  50. Format                                   : UTF-8
  51. Codec ID                                 : S_TEXT/UTF8
  52. Codec ID/Info                            : UTF-8 Plain Text
  53. Title                                    : SDH
  54. Language                                 : English
  55. Default                                  : No
  56. Forced                                   : No

  57. Text #2
  58. ID                                       : 4
  59. Format                                   : UTF-8
  60. Codec ID                                 : S_TEXT/UTF8
  61. Codec ID/Info                            : UTF-8 Plain Text
  62. Language                                 : English
  63. Default                                  : No
  64. Forced                                   : No

  65. Menu
  66. 00:00:00.000                             : en:00:00:00.000
  67. 00:11:31.316                             : en:00:11:31.316
  68. 00:18:39.744                             : en:00:18:39.744
  69. 00:30:00.424                             : en:00:30:00.424
  70. 00:38:23.843                             : en:00:38:23.843
  71. 00:46:54.186                             : en:00:46:54.186
  72. 00:57:15.724                             : en:00:57:15.724
  73. 01:08:21.681                             : en:01:08:21.681
  74. 01:15:03.582                             : en:01:15:03.582
  75. 01:22:41.748                             : en:01:22:41.748
  76. 01:31:09.214                             : en:01:31:09.214
  77. 01:37:44.484                             : en:01:37:44.484
复制代码





                                       
                                       

                                       
                                       
                                       




回复

使用道具 举报

懒得打字嘛,点击右侧快捷回复 【右侧内容,后台自定义】
您需要登录后才可以回帖 登录 | 立即加入

本版积分规则

Archiver|小黑屋| 蓝光电影网 |网站地图

Copyright © 2021 Comsenz Inc. Powered by 蓝光电影网

蓝光电影网

本站内容由用户自主分享和转载自互联网,转载目的在于传递更多信息,并不代表本网赞同其观点和对其真实性负责。

如有侵权、违反国家法律政策行为,请联系我们,我们会第一时间及时清除和处理!

举报反馈邮箱:[email protected]

快速回复 返回顶部 返回列表