找回密码

蓝光电影网

查看: 11|回复: 0

[喜剧] 怪尸案/哈里的纠纷 The.Trouble.with.Harry.1955.1080p.BluRay.X264-AMIABLE 7.65GB

[复制链接]
蓝光币
515
发表于 2020-11-21 09:50:48 | 显示全部楼层 |阅读模式


◎译  名 怪尸案/哈里的胶葛/哈里的麻烦/怪尸记
◎片  名 The Trouble with Harry
◎年  代 1955
◎产  地 美国
◎类  别 笑剧 / 悬疑
◎语  言 英语
◎上映日期 1955-10-03(美国)
◎IMDb评分  7.1/10 from 33212 users
◎IMDb链接  https://www.imdb.com/title/tt0048750/
◎豆瓣评分 7.4/10 from 10914 users
◎豆瓣链接 https://movie.douban.com/subject/1301232/
◎片  长 99 分钟
◎导  演 阿尔弗雷德·希区柯克 Alfred Hitchcock
◎编  剧 约翰·迈克尔·海耶斯 John Michael Hayes / Jack Trevor Story
◎主  演 埃德蒙·戈温 Edmund Gwenn
       约翰·福赛思 John Forsythe
       米尔翠德·纳特威克 Mildred Natwick
       米尔德丽德·丹诺克 Mildred Dunnock
       罗亚尔·达诺 Royal Dano
       德怀特·马费尔德 Dwight Marfield
       雪莉·麦克雷恩 Shirley MacLaine
       阿尔弗雷德·希区柯克 Alfred Hitchcock
       Jerry Mathers
       Parker Fennelly
       Barry Macollum
       Philip Truex
◎标  签 希区柯克 | 悬疑 | 美国 | 笑剧 | 1955 | AlfredHitchcock | 阿尔弗雷德·希区柯克 | 美国电影
◎简  介


  小男孩哈尼在森林中安步时,发现了他的父亲——哈利的尸身。分歧于一般谋杀案,此次由于多人都自以为凶手而令案情加倍扑朔迷离。亚伯特船主(埃德蒙?格温 Edmund Gwenn 饰)以为是他在狩猎射击时误杀了哈利;村子里的老童贞葛雷布礼蜜斯(麦尔翠德?耐维克 Mildred Natwick 饰)以为是由于她为了保住自己的名声而用一只鞋子打了哈利的头部而形成他的灭亡;与哈利豪情不睦的妻子珍妮佛(雪莉?麦克雷恩 Shirley MacLaine 饰)则以为是她由于抵挡哈利的性爱用装牛奶的罐子敲向他的脑壳而形成了他的灭亡。真相最初能否内情毕露?
◎获奖情况
  第12届金球奖 ?(1955)
  电影类年度女新星 雪莉·麦克雷恩
  1. Video
  2. ID                                       : 1
  3. Format                                   : AVC
  4. Format/Info                              : Advanced Video Codec
  5. Format profile                           : [email protected]
  6. Format settings                          : CABAC / 4 Ref Frames
  7. Format settings, CABAC                   : Yes
  8. Format settings, Reference frames        : 4 frames
  9. Codec ID                                 : V_MPEG4/ISO/AVC
  10. Duration                                 : 1 h 39 min
  11. Bit rate                                 : 9 498 kb/s
  12. Width                                    : 1 920 pixels
  13. Height                                   : 1 040 pixels
  14. Display aspect ratio                     : 1.85:1
  15. Frame rate mode                          : Constant
  16. Frame rate                               : 23.976 (24000/1001/189150) FPS
  17. Color space                              : YUV
  18. Chroma subsampling                       : 4:2:0
  19. Bit depth                                : 8 bits
  20. Scan type                                : Progressive
  21. Bits/(Pixel*Frame)                       : 0.198
  22. Stream size                              : 6.45 GiB (84%)
  23. Writing library                          : x264 core 128 r2216 198a7ea
  24. Encoding settings                        : cabac=1 / ref=4 / deblock=1:0:0 / analyse=0x3:0x113 / me=umh / subme=8 / psy=1 / psy_rd=1.00:0.00 / mixed_ref=1 / me_range=16 / chroma_me=1 / trellis=1 / 8x8dct=1 / cqm=0 / deadzone=21,11 / fast_pskip=1 / chroma_qp_offset=-2 / threads=12 / lookahead_threads=2 / sliced_threads=0 / nr=0 / decimate=1 / interlaced=0 / bluray_compat=0 / constrained_intra=0 / bframes=3 / b_pyramid=2 / b_adapt=2 / b_bias=0 / direct=3 / weightb=1 / open_gop=0 / weightp=2 / keyint=240 / keyint_min=24 / scenecut=40 / intra_refresh=0 / rc_lookahead=50 / rc=2pass / mbtree=1 / bitrate=9498 / ratetol=1.0 / qcomp=0.60 / qpmin=0 / qpmax=69 / qpstep=4 / cplxblur=20.0 / qblur=0.5 / ip_ratio=1.40 / aq=1:1.00
  25. Language                                 : English
  26. Default                                  : Yes
  27. Forced                                   : No

  28. Audio
  29. ID                                       : 2
  30. Format                                   : DTS
  31. Format/Info                              : Digital Theater Systems
  32. Codec ID                                 : A_DTS
  33. Duration                                 : 1 h 39 min
  34. Bit rate mode                            : Constant
  35. Bit rate                                 : 1 509 kb/s
  36. Channel(s)                               : 6 channels
  37. Channel(s)_Original                      : 2 channels
  38. ChannelLayout_Original                   : L R
  39. Sampling rate                            : 48.0 kHz
  40. Frame rate                               : 93.750 FPS (512 SPF)
  41. Bit depth                                : 24 bits
  42. Compression mode                         : Lossy
  43. Stream size                              : 1.05 GiB (14%)
  44. Language                                 : English
  45. Default                                  : Yes
  46. Forced                                   : No

  47. Text
  48. ID                                       : 3
  49. Format                                   : UTF-8
  50. Codec ID                                 : S_TEXT/UTF8
  51. Codec ID/Info                            : UTF-8 Plain Text
  52. Language                                 : English
  53. Default                                  : No
  54. Forced                                   : No

  55. Menu
  56. 00:00:00.000                             : en:00:00:00.000
  57. 00:01:52.070                             : en:00:01:52.070
  58. 00:05:15.440                             : en:00:05:15.440
  59. 00:14:06.220                             : en:00:14:06.220
  60. 00:20:47.496                             : en:00:20:47.496
  61. 00:24:20.084                             : en:00:24:20.084
  62. 00:38:01.696                             : en:00:38:01.696
  63. 00:43:15.051                             : en:00:43:15.051
  64. 00:47:21.630                             : en:00:47:21.630
  65. 00:54:20.883                             : en:00:54:20.883
  66. 00:56:49.865                             : en:00:56:49.865
  67. 01:02:55.063                             : en:01:02:55.063
  68. 01:10:03.658                             : en:01:10:03.658
  69. 01:14:28.005                             : en:01:14:28.005
  70. 01:21:21.835                             : en:01:21:21.835
  71. 01:26:25.972                             : en:01:26:25.972
  72. 01:34:42.760                             : en:01:34:42.760
  73. 01:37:19.584                             : en:01:37:19.584
复制代码









                                       
                                       

                                       
                                       
                                       




回复

使用道具 举报

懒得打字嘛,点击右侧快捷回复 【右侧内容,后台自定义】
您需要登录后才可以回帖 登录 | 立即加入

本版积分规则

Archiver|小黑屋| 蓝光电影网 |网站地图

Copyright © 2021 Comsenz Inc. Powered by 蓝光电影网

蓝光电影网

本站内容由用户自主分享和转载自互联网,转载目的在于传递更多信息,并不代表本网赞同其观点和对其真实性负责。

如有侵权、违反国家法律政策行为,请联系我们,我们会第一时间及时清除和处理!

举报反馈邮箱:[email protected]

快速回复 返回顶部 返回列表